<?xml version="1.0" standalone="no"?>
<!DOCTYPE svg PUBLIC "-//W3C//DTD SVG 1.1//EN" "http://www.w3.org/Graphics/SVG/1.1/DTD/svg11.dtd" >
<svg xmlns="http://www.w3.org/2000/svg" xmlns:xlink="http://www.w3.org/1999/xlink" version="1.1">
<metadata>
Created by FontForge 20170731 at Mon Sep 16 20:06:54 2013
 By Aleksey,,,
(c) WWF - World Wide Fund For Nature (Formerly World Wildlife Fund)
</metadata>
<defs>
<font id="WWF" horiz-adv-x="483" >
  <font-face 
    font-family="WWF"
    font-weight="400"
    font-stretch="normal"
    units-per-em="2048"
    panose-1="2 0 0 0 0 0 0 0 0 0"
    ascent="1475"
    descent="-573"
    x-height="1022"
    cap-height="1475"
    bbox="-125 -471 1927 2337"
    underline-thickness="102"
    underline-position="-306"
    unicode-range="U+0020-FB04"
  />
<missing-glyph horiz-adv-x="1007" 
d="M137 -338v1813h733v-1813h-733zM342 -156h324v1448h-324v-1448z" />
    <glyph glyph-name="IJ" unicode="IJ" horiz-adv-x="1032" 
d="M76 0v1475h203v-1475h-203zM381 55l94 162q74 -51 146 -51q78 0 108.5 48t30.5 167v1094h203v-1113q0 -202 -78 -295.5t-260 -93.5q-81 0 -146 25t-98 57z" />
    <glyph glyph-name="ij" unicode="ij" horiz-adv-x="675" 
d="M57 1264q0 52 32.5 85t82.5 33q47 0 80 -33t33 -79q0 -50 -32.5 -82.5t-80.5 -32.5q-51 0 -83 30.5t-32 78.5zM74 0v1022h194v-1022h-194zM229 -160q37 -6 80 -6q62 0 80.5 34.5t18.5 129.5v1024h194v-1006q0 -67 -4 -113.5t-18.5 -95.5t-40 -78t-70.5 -48t-109 -19
q-72 0 -131 16v162zM391 1264q0 52 32.5 85t82.5 33q47 0 79.5 -33t32.5 -79q0 -50 -32 -82.5t-80 -32.5q-51 0 -83 30.5t-32 78.5z" />
    <glyph glyph-name="f_f" unicode="ff" horiz-adv-x="919" 
d="M10 840v147l113 27v153q0 180 61 258t207 78q61 0 121 -20v-174q-35 10 -96 10q-28 0 -46.5 -9t-29 -22.5t-16 -39t-6.5 -47.5t-1 -60v-119h213v145q0 180 61 258t208 78q61 0 121 -20v-174q-35 10 -97 10q-28 0 -46.5 -9t-28.5 -22t-15.5 -39t-6.5 -48t-1 -60v-119h176
v-182h-176v-840h-195v840h-213v-840h-194v840h-113z" />
    <glyph glyph-name="fi" unicode="fi" horiz-adv-x="798" 
d="M10 840v147l113 27v153q0 180 61 258t207 78q61 0 121 -20v-174q-35 10 -96 10q-28 0 -46.5 -9t-29 -22.5t-16 -39t-6.5 -47.5t-1 -60v-119h408v-1022h-195v840h-213v-840h-194v840h-113z" />
    <glyph glyph-name="fl" unicode="fl" horiz-adv-x="794" 
d="M10 840v147l113 27v153q0 180 61 258t207 78q74 0 139 -28h195v-1475h-195v840h-213v-840h-194v840h-113zM317 1022h213v287q-59 18 -114 18q-28 0 -46.5 -9t-29 -22.5t-16 -39t-6.5 -47.5t-1 -60v-127z" />
    <glyph glyph-name="f_f_i" unicode="ffi" horiz-adv-x="1206" 
d="M10 840v147l113 27v153q0 180 61 258t207 78q61 0 121 -20v-174q-35 10 -96 10q-28 0 -46.5 -9t-29 -22.5t-16 -39t-6.5 -47.5t-1 -60v-119h213v145q0 180 61 258t208 78q61 0 121 -20v-174q-35 10 -97 10q-28 0 -46.5 -9t-28.5 -22t-15.5 -39t-6.5 -48t-1 -60v-119h408
v-1022h-195v840h-213v-840h-195v840h-213v-840h-194v840h-113z" />
    <glyph glyph-name="f_f_l" unicode="ffl" horiz-adv-x="1202" 
d="M10 840v147l113 27v153q0 180 61 258t207 78q61 0 121 -20v-174q-35 10 -96 10q-28 0 -46.5 -9t-29 -22.5t-16 -39t-6.5 -47.5t-1 -60v-119h213v145q0 180 61 258t208 78q74 0 139 -28h195v-1475h-195v840h-213v-840h-195v840h-213v-840h-194v840h-113zM725 1022h213v287
q-59 18 -115 18q-28 0 -46.5 -9t-28.5 -22t-15.5 -39t-6.5 -48t-1 -60v-127z" />
    <glyph glyph-name="f_j" unicode="fj" horiz-adv-x="782" 
d="M10 840v147l113 27v153q0 180 61 258t207 78q61 0 121 -20v-174q-35 10 -96 10q-28 0 -46.5 -9t-29 -22.5t-16 -39t-6.5 -47.5t-1 -60v-119h408v-1006q0 -67 -4 -113.5t-18.5 -95.5t-40 -78t-70.5 -48t-109 -19q-72 0 -131 16v162q37 -6 80 -6q62 0 80 34t18 130v842
h-213v-840h-194v840h-113z" />
    <glyph glyph-name="f_t" unicode="ft" horiz-adv-x="884" 
d="M10 840v147l113 27v153q0 180 61 258t207 78q61 0 121 -20v-174q-35 10 -96 10q-28 0 -46.5 -9t-29 -22.5t-16 -39t-6.5 -47.5t-1 -60v-119h215l21 223l172 41v-264h156v-182h-156v-596q0 -54 16 -71t66 -17q30 0 78 6v-164q-81 -25 -154 -25q-106 0 -153.5 50t-47.5 184
v633h-213v-840h-194v840h-113z" />
    <glyph glyph-name=".notdef" horiz-adv-x="1007" 
d="M137 -338v1813h733v-1813h-733zM342 -156h324v1448h-324v-1448z" />
    <glyph glyph-name=".null" horiz-adv-x="0" 
 />
    <glyph glyph-name="nonmarkingreturn" horiz-adv-x="682" 
 />
    <glyph glyph-name="space" unicode=" " horiz-adv-x="307" 
 />
    <glyph glyph-name="exclam" unicode="!" horiz-adv-x="563" 
d="M135 117q0 64 39 104.5t98 40.5t98.5 -40.5t39.5 -96.5q0 -61 -39 -100t-99 -39t-98.5 37t-38.5 94zM172 444v1031h199v-1031h-199z" />
    <glyph glyph-name="quotedbl" unicode="&#x22;" horiz-adv-x="663" 
d="M59 967v508h195v-508h-195zM367 967v508h194v-508h-194z" />
    <glyph glyph-name="numbersign" unicode="#" horiz-adv-x="696" 
d="M27 694l16 166h111l12 135h-111l17 160h110l29 320h141l-28 -320h98l29 320h141l-29 -320h111l-17 -160h-110l-12 -135h110l-16 -166h-111l-29 -332h-141l29 332h-98l-29 -332h-141l28 332h-110zM295 860h98l13 135h-99z" />
    <glyph glyph-name="dollar" unicode="$" horiz-adv-x="757" 
d="M98 307l109 135q1 -1 9 -8t11.5 -10t12.5 -10t15.5 -10.5t17 -8.5t20.5 -7.5t23 -4.5t26 -2q109 0 109 123q0 37 -17.5 66.5t-45.5 51.5t-62 43.5t-68 48t-62 58.5t-45.5 81t-17.5 110q0 116 50.5 202.5t144.5 110.5v199h155v-199q94 -8 168 -94l-110 -129q-3 3 -15 13
t-19.5 15.5t-20 12.5t-27 10.5t-31.5 3.5q-102 0 -102 -123q0 -39 18 -70.5t46.5 -53.5t63 -43t68.5 -47t62.5 -57.5t46.5 -81t18 -112.5q0 -132 -53.5 -210t-151.5 -99v-211h-157v207q-71 8 -118 37t-71 63z" />
    <glyph glyph-name="percent" unicode="%" horiz-adv-x="1069" 
d="M59 954v287q0 44 2 73.5t12.5 68.5t29 62t54 39.5t85.5 16.5t85.5 -17t54 -41t28.5 -63t12 -68.5t2 -72.5v-283q0 -43 -2 -72.5t-12 -68.5t-28.5 -63t-54 -41t-85.5 -17q-42 0 -74 10.5t-51 31.5t-31.5 43.5t-18 56t-7 58t-1.5 60.5zM193 887q0 -45 13 -62.5t38 -17.5
q23 0 35 17t12 63v428q0 46 -12 62t-35 16q-26 0 -38.5 -17t-12.5 -63v-426zM215 16l508 1500l121 -46l-508 -1499zM645 244v286q0 44 2 73.5t12 68.5t28.5 62.5t54 40t85.5 16.5q36 0 65 -9t47.5 -22.5t32.5 -36t21 -43.5t11 -50t5 -50.5t1 -51.5v-282q0 -43 -2 -72.5
t-12.5 -68.5t-29 -63t-54 -41t-85.5 -17q-42 0 -73.5 10.5t-51 31.5t-31.5 43.5t-17.5 56t-7 58t-1.5 60.5zM778 176q0 -45 13 -62.5t38 -17.5q23 0 35.5 17t12.5 63v428q0 46 -12.5 62t-35.5 16q-26 0 -38.5 -17t-12.5 -63v-426z" />
    <glyph glyph-name="ampersand" unicode="&#x26;" horiz-adv-x="897" 
d="M78 365v114q0 256 164 289q-60 15 -94.5 56.5t-45 92.5t-10.5 125v107q0 81 16 142.5t52.5 110.5t102.5 75t159 26q90 0 152 -24.5t112 -81.5l-111 -125q-67 63 -153 63q-81 0 -111 -43t-30 -141v-150q0 -96 32 -129.5t113 -33.5h76v137l186 43v-180h131v-172h-131v-607
q-63 -36 -149.5 -61t-155.5 -25q-76 0 -132 23.5t-88.5 60t-52 90t-26 104.5t-6.5 114zM270 377q0 -119 27 -173t100 -54q59 0 105 22v494h-88q-48 0 -77.5 -11t-44 -38t-18.5 -57t-4 -81v-102z" />
    <glyph glyph-name="quotesingle" unicode="'" horiz-adv-x="350" 
d="M70 967v508h194v-508h-194z" />
    <glyph glyph-name="parenleft" unicode="(" horiz-adv-x="589" 
d="M76 588q0 125 7.5 231t25 213t50 189t79 146.5t115 99.5t155.5 36v-192q-32 -3 -58.5 -16t-46.5 -38t-36.5 -52t-28 -69.5t-20 -77.5t-13.5 -89t-8 -92.5t-4 -98.5t-1.5 -95t-0.5 -95q0 -166 6.5 -283t21.5 -206t41.5 -143t63.5 -83.5t90 -38.5v-192q-238 6 -338 235
t-100 711z" />
    <glyph glyph-name="parenright" unicode=")" horiz-adv-x="589" 
d="M76 -166q53 9 90 38.5t63.5 83.5t41.5 143t21.5 206t6.5 283q0 60 -0.5 95t-1.5 95t-4 98.5t-8 92.5t-13.5 89t-20 77.5t-28 69.5t-36.5 52t-46.5 38t-58.5 16v192q87 -1 155.5 -36t115 -99.5t79 -146.5t50 -189t25 -213t7.5 -231q0 -482 -100 -711t-338 -235v192z" />
    <glyph glyph-name="asterisk" unicode="*" horiz-adv-x="694" 
d="M74 1071l129 121l-129 121l94 110l106 -104v156h152v-156l104 104l99 -110l-129 -121l129 -121l-99 -102l-104 104v-155h-152v155l-106 -104z" />
    <glyph glyph-name="plus" unicode="+" horiz-adv-x="757" 
d="M33 621v190h254v311h186v-311h252v-190h-252v-312h-186v312h-254z" />
    <glyph glyph-name="comma" unicode="," horiz-adv-x="387" 
d="M-12 -174q82 58 107.5 140t25.5 218v62h221v-94q0 -65 -14.5 -129t-43.5 -125.5t-80.5 -114t-119.5 -84.5z" />
    <glyph glyph-name="hyphen" unicode="-" horiz-adv-x="503" 
d="M29 473v182h446v-182h-446z" />
    <glyph glyph-name="period" unicode="." horiz-adv-x="497" 
d="M96 117q0 64 39 104.5t98 40.5t98.5 -40.5t39.5 -96.5q0 -61 -39 -100t-99 -39t-98.5 37t-38.5 94z" />
    <glyph glyph-name="slash" unicode="/" horiz-adv-x="698" 
d="M39 -338l436 1862l199 -49l-436 -1862z" />
    <glyph glyph-name="zero" unicode="0" horiz-adv-x="757" 
d="M74 461v555q0 63 1 96.5t6.5 93.5t16.5 94t33 78t53.5 67.5t80.5 40.5t112 17q64 0 113.5 -17.5t81.5 -41.5t54.5 -68.5t33.5 -79.5t16.5 -95t6.5 -93.5t1 -95.5v-547q0 -62 -1 -95.5t-6.5 -94t-16.5 -95t-33.5 -79.5t-54.5 -69t-81.5 -41.5t-113.5 -17.5q-63 0 -112 17
t-80.5 40.5t-53.5 67.5t-33 78.5t-16.5 94.5t-6.5 93.5t-1 96.5zM281 436q0 -50 0.5 -75t3 -63.5t9 -57.5t17 -40t28.5 -29.5t42 -8.5q18 0 32 4.5t23.5 17t17 23.5t11.5 34t6.5 39t4 48t1.5 51v57v608q0 51 -0.5 75.5t-3 63.5t-8.5 58t-16.5 40t-27.5 29.5t-40 8.5
q-18 0 -33 -5t-25 -17t-17.5 -24t-12 -35t-7 -39.5t-4 -49t-1.5 -51.5v-58v-604z" />
    <glyph glyph-name="one" unicode="1" horiz-adv-x="757" 
d="M98 1245l326 230h156v-1475h-199v1235l-188 -131z" />
    <glyph glyph-name="two" unicode="2" horiz-adv-x="757" 
d="M63 1358q96 145 308 145q317 0 317 -373q0 -47 -3.5 -87.5t-8 -72.5t-15 -63.5t-18.5 -53.5t-25.5 -48t-29 -42t-35 -41.5t-37.5 -39.5t-43.5 -42.5t-46.5 -45.5q-76 -76 -103.5 -143.5t-27.5 -178.5v-79h371v-193h-570v236q0 181 41.5 283t143.5 204q6 6 29.5 29t32 32
t29 31t29 36t24 37.5t22.5 44.5t15.5 48.5t11.5 57.5t3 63q0 123 -32.5 173t-100.5 50q-84 0 -151 -86z" />
    <glyph glyph-name="three" unicode="3" horiz-adv-x="757" 
d="M80 123l133 131q69 -96 147 -96q66 0 92.5 48t26.5 159v102q0 51 -4 86t-15.5 57.5t-22.5 35t-36 18.5t-43.5 7t-56.5 1h-29v188h29q35 0 52 1t40.5 7t34 18.5t22 34.5t15.5 57t4 85v86q0 85 -23.5 130.5t-85.5 45.5q-81 0 -145 -90l-127 117q91 151 281 151
q165 0 235 -91t70 -257v-119q0 -115 -35 -174.5t-119 -79.5q77 -14 120.5 -83t43.5 -185v-149q0 -87 -15.5 -154.5t-51.5 -123t-101.5 -85t-159.5 -29.5q-99 0 -170 45t-106 105z" />
    <glyph glyph-name="four" unicode="4" horiz-adv-x="757" 
d="M41 311v168l348 996h197v-981h131v-183h-131v-311h-191v311h-354zM209 494h186v538z" />
    <glyph glyph-name="five" unicode="5" horiz-adv-x="757" 
d="M74 123l135 131q48 -59 79.5 -76.5t73.5 -17.5q35 0 59.5 19.5t37 56.5t17.5 80.5t5 101.5v114q0 111 -22 163.5t-88 52.5q-42 0 -74.5 -30.5t-50.5 -66.5l-135 82l18 742h533v-193h-371l-12 -428q13 36 59 65t100 29q129 0 188.5 -89t59.5 -273v-176
q0 -224 -75.5 -331.5t-245.5 -107.5q-197 0 -291 152z" />
    <glyph glyph-name="six" unicode="6" horiz-adv-x="757" 
d="M74 461v555q0 63 2.5 110t10.5 100.5t22 91.5t38.5 75t58.5 59.5t83.5 36.5t111.5 14q172 0 265 -104l-113 -148q-68 64 -131 64q-91 0 -117 -71.5t-26 -280.5v-86q12 32 62.5 67t119.5 35q45 0 79 -11.5t57.5 -29t40 -50.5t25.5 -65t14 -83.5t6 -94.5t1 -110v-70
q0 -62 -1 -95.5t-6.5 -94t-16.5 -95t-33.5 -79.5t-54.5 -69t-81.5 -41.5t-113.5 -17.5q-63 0 -112 17t-80.5 40.5t-53.5 67.5t-33 78.5t-16.5 94.5t-6.5 93.5t-1 96.5zM281 430q0 -50 0.5 -75t3 -63.5t9 -57.5t17 -40t28.5 -29.5t42 -8.5q18 0 32 4.5t23.5 17t17 23.5
t11.5 34t6.5 39t4 48t1.5 51v57v88q0 51 -0.5 75.5t-3 63.5t-8.5 58t-16.5 40t-27.5 29.5t-40 8.5q-18 0 -33 -5t-25 -17t-17.5 -24t-12 -35t-7 -39.5t-4 -49t-1.5 -51.5v-58v-84z" />
    <glyph glyph-name="seven" unicode="7" horiz-adv-x="757" 
d="M59 1282v193h625v-146l-385 -1329h-211l399 1282h-428z" />
    <glyph glyph-name="eight" unicode="8" horiz-adv-x="757" 
d="M74 365v114q0 121 39.5 198.5t113.5 90.5q-143 32 -143 274v93q0 82 14 145t46 115t91 80t144 28t144 -28t91 -80t46 -115t14 -145v-93q0 -242 -144 -274q74 -13 114 -90.5t40 -198.5v-114q0 -63 -6.5 -114t-26 -104.5t-52 -90t-88.5 -60t-132 -23.5t-132 23.5t-88.5 60
t-52 90t-26 104.5t-6.5 114zM270 365q0 -98 23.5 -152.5t85.5 -54.5t85 54t23 153v88q0 98 -23 152t-85 54t-85.5 -54t-23.5 -152v-88zM274 1042q0 -94 22.5 -147t82.5 -53q31 0 52.5 15t32 44t15 62.5t4.5 78.5v84q0 61 -7.5 102.5t-31.5 70t-65 28.5q-31 0 -52.5 -15
t-32.5 -44t-15.5 -63t-4.5 -79v-84z" />
    <glyph glyph-name="nine" unicode="9" horiz-adv-x="757" 
d="M74 942v70q0 62 1 95.5t6.5 93.5t16.5 95t33.5 79.5t54.5 68.5t81.5 41.5t113.5 17.5q63 0 112 -17t80.5 -40.5t53.5 -67.5t33 -78t16.5 -94t6.5 -93.5t1 -96.5v-555q0 -63 -2.5 -110t-10.5 -100.5t-22.5 -92t-39 -75.5t-58.5 -59.5t-83.5 -36.5t-111.5 -14
q-173 0 -274 113l113 147q76 -71 141 -71q91 0 117 71.5t26 280.5v66q-60 -82 -162 -82q-49 0 -86.5 11.5t-63.5 29t-43.5 51t-27 64.5t-15 83.5t-6.5 94.5t-1 110zM281 901q0 -19 1.5 -51t4 -48t6.5 -39t11.5 -34t17 -23.5t23.5 -17t32 -4.5t33 5t25 17t17.5 24t12 35
t7 39.5t4 49t1.5 51.5v58v84q0 50 -0.5 75t-3 63.5t-9 57.5t-17 40t-28.5 29.5t-42 8.5q-18 0 -32 -4.5t-23.5 -17t-17 -23.5t-11.5 -34t-6.5 -39t-4 -48t-1.5 -51v-57v-89v-57z" />
    <glyph glyph-name="colon" unicode=":" horiz-adv-x="497" 
d="M96 117q0 64 39 104.5t98 40.5t98.5 -40.5t39.5 -96.5q0 -61 -39 -100t-99 -39t-98.5 37t-38.5 94zM96 901q0 64 39 105t98 41t98.5 -40.5t39.5 -97.5q0 -61 -39 -100t-99 -39t-98.5 37t-38.5 94z" />
    <glyph glyph-name="semicolon" unicode=";" horiz-adv-x="497" 
d="M-12 -174q82 58 107.5 140t25.5 218v62h221v-94q0 -65 -14.5 -129t-43.5 -125.5t-80.5 -114t-119.5 -84.5zM96 901q0 64 39 105t98 41t98.5 -40.5t39.5 -97.5q0 -61 -39 -100t-99 -39t-98.5 37t-38.5 94z" />
    <glyph glyph-name="less" unicode="&#x3c;" horiz-adv-x="798" 
d="M33 621v190l573 342l111 -178l-445 -266l445 -289l-111 -182z" />
    <glyph glyph-name="equal" unicode="=" horiz-adv-x="757" 
d="M33 422v190h692v-190h-692zM33 819v191h692v-191h-692z" />
    <glyph glyph-name="greater" unicode="&#x3e;" horiz-adv-x="798" 
d="M82 420l444 289l-444 266l111 178l573 -342v-190l-573 -383z" />
    <glyph glyph-name="question" unicode="?" horiz-adv-x="700" 
d="M25 1380q36 51 105 87t173 36q161 0 244.5 -83.5t83.5 -245.5q0 -65 -5 -104.5t-23 -90.5t-57.5 -101.5t-105.5 -113.5q-43 -41 -54 -74t-11 -133v-113h-191v156q0 101 12.5 140t73.5 102q82 84 107 121q55 81 55 188q0 96 -34.5 138t-104.5 42q-87 0 -154 -71zM141 117
q0 64 39.5 104.5t98.5 40.5t98 -40t39 -97q0 -61 -38.5 -100t-98.5 -39t-99 37t-39 94z" />
    <glyph glyph-name="at" unicode="@" horiz-adv-x="1169" 
d="M74 601v3v268v3q0 67 0.5 101.5t5 97.5t13 98t26 87t42.5 81.5t64 65t89 53.5t118.5 31t151.5 13q132 0 227 -26t151 -69.5t88.5 -114.5t43 -145t10.5 -177v-78q0 -132 -21 -227.5t-60.5 -150.5t-91 -80t-118.5 -25q-43 0 -74 9t-45.5 24t-21 27t-8.5 24
q-6 -14 -20.5 -31.5t-49 -37t-76.5 -19.5q-78 0 -121 56.5t-43 160.5q0 100 15 177.5t38.5 124.5t56 77t63.5 41.5t65 11.5q35 0 59 -8.5t36.5 -26t16.5 -27.5t9 -28l22 77h101l-52 -354q-12 -83 -12 -98q0 -41 41 -41q56 0 85.5 84t29.5 285v43q0 88 -8.5 146.5t-30 105
t-60.5 72t-97.5 38t-143.5 12.5q-84 0 -143.5 -17t-97 -48t-58.5 -85t-29 -117t-8 -155v-348q0 -92 8 -155.5t29 -118t58.5 -85.5t97 -48t143.5 -17q37 0 71 2.5t60 5.5t51 10t42 12t36 15t28.5 14.5t24.5 16.5t19.5 15.5t17 15.5t14.5 14l109 -110q-135 -179 -477 -179
q-106 0 -188.5 21t-136 49.5t-90.5 84.5t-55 99t-27.5 121t-11 122.5t-1.5 130.5zM500 641q0 -90 45 -90q46 0 78 75t32 208q0 44 -10.5 62.5t-40.5 18.5q-44 0 -74 -84t-30 -190z" />
    <glyph glyph-name="A" unicode="A" horiz-adv-x="831" 
d="M23 0l256 1475h256l274 -1475h-219l-53 346h-254l-52 -346h-208zM311 553h191l-99 614z" />
    <glyph glyph-name="B" unicode="B" horiz-adv-x="811" 
d="M76 0v1475h266q108 0 178.5 -14t124.5 -52t78.5 -108.5t24.5 -180.5v-82q0 -262 -187 -274q91 -11 141 -78.5t50 -183.5v-105q0 -74 -9.5 -131t-27 -99t-47 -71.5t-63.5 -48t-83.5 -29t-100 -14.5t-118.5 -4h-227zM279 201h67q113 0 152 43.5t39 161.5v71
q0 109 -39.5 144.5t-130.5 35.5h-88v-456zM279 848h83q175 0 175 170v67q0 113 -40 153t-139 40h-79v-430z" />
    <glyph glyph-name="C" unicode="C" horiz-adv-x="714" 
d="M70 424v629q0 82 7 143t28 122t57 99t98.5 62t147.5 24q110 0 175 -34t113 -99l-133 -131q-58 72 -141 72q-75 0 -106 -49t-31 -166v-709q0 -112 29 -163.5t104 -51.5q40 0 76 14.5t50 26t38 33.5l120 -152q-38 -48 -111.5 -84.5t-176.5 -36.5q-86 0 -148 22.5
t-99.5 59.5t-59.5 97t-29.5 123t-7.5 149z" />
    <glyph glyph-name="D" unicode="D" horiz-adv-x="821" 
d="M76 0v1475h237q90 0 152 -6.5t113.5 -25t82.5 -48.5t52.5 -80t30 -116t8.5 -159v-596q0 -99 -8 -167t-30 -119t-52.5 -80.5t-85 -47.5t-117.5 -24t-158 -6h-225zM279 203h51q52 0 83.5 2.5t56.5 14.5t37 26t19.5 48t9 69.5t1.5 101.5v575q0 65 -6 105.5t-17 67.5
t-37 39.5t-56.5 17t-84.5 4.5h-57v-1071z" />
    <glyph glyph-name="E" unicode="E" horiz-adv-x="706" 
d="M76 0v1475h573v-209h-370v-402h358v-207h-358v-446h385v-211h-588z" />
    <glyph glyph-name="F" unicode="F" horiz-adv-x="698" 
d="M76 0v1475h573v-209h-370v-402h342v-207h-342v-657h-203z" />
    <glyph glyph-name="G" unicode="G" horiz-adv-x="786" 
d="M70 459v2v592q0 82 7 143t28 122t57 99t98.5 62t147.5 24q110 0 175 -34t113 -99l-133 -131q-58 72 -141 72q-75 0 -106 -49t-31 -166v-652q0 -61 2 -98t9 -74.5t20.5 -57t37 -32t58.5 -12.5q69 0 112 25v462h-141v207h334v-805q-51 -31 -140 -58.5t-186 -27.5
q-59 0 -106 11t-79.5 35.5t-57 49t-38.5 67t-23 73.5t-12.5 84t-4 82t-0.5 84z" />
    <glyph glyph-name="H" unicode="H" horiz-adv-x="815" 
d="M76 0v1475h203v-611h258v611h202v-1475h-202v657h-258v-657h-203z" />
    <glyph glyph-name="I" unicode="I" horiz-adv-x="354" 
d="M76 0v1475h203v-1475h-203z" />
    <glyph glyph-name="J" unicode="J" horiz-adv-x="667" 
d="M16 55l95 162q74 -51 145 -51q78 0 108.5 48t30.5 167v1094h203v-1113q0 -202 -78 -295.5t-260 -93.5q-81 0 -146 25t-98 57z" />
    <glyph glyph-name="K" unicode="K" horiz-adv-x="768" 
d="M76 0v1475h203v-713l260 713h209l-273 -742l297 -733h-235l-258 686v-686h-203z" />
    <glyph glyph-name="L" unicode="L" horiz-adv-x="641" 
d="M76 0v1475h203v-1264h350v-211h-553z" />
    <glyph glyph-name="M" unicode="M" horiz-adv-x="1155" 
d="M76 0v1475h295l209 -1072l208 1072h291v-1475h-186v1133l-227 -1133h-185l-227 1133v-1133h-178z" />
    <glyph glyph-name="N" unicode="N" horiz-adv-x="815" 
d="M76 0v1475h217l272 -992v992h174v-1475h-213l-276 1008v-1008h-174z" />
    <glyph glyph-name="O" unicode="O" horiz-adv-x="827" 
d="M70 461v555q0 63 1 96.5t7.5 93.5t18.5 94t37 78t60.5 67.5t91 40.5t126.5 17q72 0 128 -17.5t92 -41.5t61.5 -68.5t37.5 -79.5t18.5 -95t7.5 -93.5t1 -95.5v-547q0 -62 -1 -95.5t-7.5 -94t-18.5 -95t-37.5 -79.5t-61.5 -69t-92 -41.5t-128 -17.5q-71 0 -126.5 17
t-91 40.5t-60.5 67.5t-37 78.5t-18.5 94.5t-7.5 93.5t-1 96.5zM285 444q0 -43 0.5 -64.5t2.5 -56.5t7 -52.5t14.5 -40.5t23.5 -33.5t34.5 -18.5t48.5 -8q27 0 47 8t33.5 18.5t22.5 33t14 40t7 52.5t2.5 56.5t0.5 65.5v592q0 44 -0.5 65.5t-2.5 56.5t-7 52.5t-14 40.5
t-22.5 33.5t-33.5 18.5t-47 8q-28 0 -48.5 -8t-34.5 -19t-23.5 -34t-14.5 -41t-7 -53.5t-2.5 -57.5t-0.5 -66v-588z" />
    <glyph glyph-name="P" unicode="P" horiz-adv-x="790" 
d="M76 0v1475h266q62 0 108 -3.5t90.5 -13t75 -26t57.5 -43t42.5 -64t24 -88.5t8.5 -117v-194q0 -119 -22.5 -193.5t-74.5 -115t-119.5 -54.5t-175.5 -14h-77v-549h-203zM279 743h83q95 0 135 37.5t40 132.5v172q0 62 -9.5 100t-33 58.5t-54.5 27.5t-82 7h-79v-535z" />
    <glyph glyph-name="Q" unicode="Q" horiz-adv-x="827" 
d="M70 461v555q0 63 1 96.5t7.5 93.5t18.5 94t37 78t60.5 67.5t91 40.5t126.5 17q72 0 128 -17.5t92 -41.5t61.5 -68.5t37.5 -79.5t18.5 -95t7.5 -93.5t1 -95.5v-547q0 -51 -1.5 -88t-6.5 -86.5t-14.5 -85.5t-26.5 -75t-41 -65t-60 -46t-82 -27q37 -104 230 -180l-66 -117
q-41 4 -83 14.5t-89 33t-85.5 54t-69.5 81t-44 110.5q-50 6 -89.5 26t-65.5 45t-44.5 65t-28 74.5t-14.5 86.5t-6 87t-1 89zM285 444q0 -43 0.5 -64.5t2.5 -56.5t7 -52.5t14.5 -40.5t23.5 -33.5t34.5 -18.5t48.5 -8q27 0 47 8t33.5 18.5t22.5 33t14 40t7 52.5t2.5 56.5
t0.5 65.5v592q0 44 -0.5 65.5t-2.5 56.5t-7 52.5t-14 40.5t-22.5 33.5t-33.5 18.5t-47 8q-28 0 -48.5 -8t-34.5 -19t-23.5 -34t-14.5 -41t-7 -53.5t-2.5 -57.5t-0.5 -66v-588z" />
    <glyph glyph-name="R" unicode="R" horiz-adv-x="768" 
d="M76 0v1475h262q45 0 78 -2t76.5 -9t74 -20t63 -37t52.5 -57t32.5 -82.5t12.5 -112.5v-123q0 -147 -41.5 -211.5t-134.5 -85.5q69 -19 95 -78.5t46 -220.5l56 -436h-207l-37 301q-9 76 -15 120t-15.5 83t-18 56.5t-24 30.5t-32.5 16t-45 3h-75v-610h-203zM279 803h38
q67 0 106.5 10.5t61.5 39.5t28.5 68.5t6.5 110.5v96q0 92 -34 122t-142 30h-65v-477z" />
    <glyph glyph-name="S" unicode="S" horiz-adv-x="720" 
d="M37 113l133 145q73 -78 154 -78q67 0 108 40t41 122q0 50 -22 99t-56.5 93t-76.5 90.5t-84.5 98.5t-77 108.5t-56.5 129.5t-22 153q0 90 22 159.5t56 111t81 67.5t90.5 35.5t90.5 9.5q184 0 278 -131l-127 -139q-62 76 -137 76q-143 0 -143 -181q0 -64 41.5 -135
t100.5 -137.5t118.5 -136.5t101 -157t41.5 -175q0 -189 -96 -296.5t-266 -107.5q-61 0 -113.5 14t-87 36.5t-56 43t-36.5 42.5z" />
    <glyph glyph-name="T" unicode="T" horiz-adv-x="784" 
d="M12 1272v203h760v-203h-278v-1272h-203v1272h-279z" />
    <glyph glyph-name="U" unicode="U" horiz-adv-x="827" 
d="M70 465v1010h215v-1026q0 -43 0.5 -64.5t2.5 -56.5t7 -52.5t14.5 -41t23.5 -34t34.5 -18.5t48.5 -8q27 0 47 8t33.5 18.5t22.5 33.5t14 40.5t7 52.5t2.5 56.5t0.5 65.5v1026h215v-1006q0 -62 -1 -95.5t-7.5 -94t-18.5 -95t-37.5 -79.5t-61.5 -69t-92 -41.5t-128 -17.5
q-71 0 -126.5 17t-91 40.5t-60.5 67.5t-37 78.5t-18.5 94.5t-7.5 93.5t-1 96.5z" />
    <glyph glyph-name="V" unicode="V" horiz-adv-x="837" 
d="M16 1475h217l191 -1117l188 1117h209l-291 -1475h-233z" />
    <glyph glyph-name="W" unicode="W" horiz-adv-x="1284" 
d="M27 1475h217l135 -996l172 996h190l172 -996l136 996h208l-235 -1475h-207l-172 1001l-172 -1001h-205z" />
    <glyph glyph-name="X" unicode="X" horiz-adv-x="825" 
d="M16 0l283 754l-258 721h231l146 -496l147 496h211l-246 -719l279 -756h-229l-174 520l-173 -520h-217z" />
    <glyph glyph-name="Y" unicode="Y" horiz-adv-x="821" 
d="M16 1475h224l178 -590l178 590h209l-293 -859v-616h-203v616z" />
    <glyph glyph-name="Z" unicode="Z" horiz-adv-x="712" 
d="M23 0v197l444 1069h-385v209h608v-199l-442 -1065h424v-211h-649z" />
    <glyph glyph-name="bracketleft" unicode="[" horiz-adv-x="589" 
d="M137 -338v1813h377v-183h-172v-1448h172v-182h-377z" />
    <glyph glyph-name="backslash" unicode="\" horiz-adv-x="698" 
d="M39 1475l199 49l436 -1862l-199 -49z" />
    <glyph glyph-name="bracketright" unicode="]" horiz-adv-x="589" 
d="M76 -156h172v1448h-172v183h377v-1813h-377v182z" />
    <glyph glyph-name="asciicircum" unicode="^" horiz-adv-x="757" 
d="M18 688l279 787h164l278 -787l-172 -63l-188 569l-191 -569z" />
    <glyph glyph-name="underscore" unicode="_" horiz-adv-x="776" 
d="M0 -156h776v-182h-776v182z" />
    <glyph glyph-name="grave" unicode="`" horiz-adv-x="487" 
d="M55 1280l111 178l266 -235l-72 -105z" />
    <glyph glyph-name="a" unicode="a" horiz-adv-x="684" 
d="M51 252v86q0 156 57 230.5t193 74.5q33 0 62.5 -4t42.5 -8l14 -4v102q0 83 -22.5 108t-96.5 25q-68 0 -166 -41l-67 154q112 72 270 72q53 0 90 -5.5t74.5 -24t60.5 -50.5t37 -88t14 -134v-745h-145l-20 92q-85 -110 -195 -110q-107 0 -155 59t-48 211zM240 281
q0 -70 17 -93.5t60 -23.5q25 0 53.5 16t49.5 45v250q-29 17 -64 17q-65 0 -90.5 -40t-25.5 -135v-36z" />
    <glyph glyph-name="b" unicode="b" horiz-adv-x="700" 
d="M70 0v1475h194v-512q67 84 170 84q52 0 88.5 -13t65.5 -45.5t43 -91t14 -145.5v-449q0 -59 -5 -102.5t-19 -85t-38 -67.5t-64 -42t-95 -16q-110 0 -188 102l-21 -92h-145zM264 236q21 -29 49.5 -45.5t53.5 -16.5q43 0 60 23.5t17 93.5v461q0 116 -84 116q-54 0 -96 -57
v-575z" />
    <glyph glyph-name="c" unicode="c" horiz-adv-x="628" 
d="M57 334v342q0 70 6.5 121t25.5 100.5t52 80.5t88.5 50t132.5 19q175 0 250 -132l-141 -116q-41 67 -104 67q-29 0 -49 -10.5t-31.5 -27t-18 -45t-8.5 -57t-2 -71.5v-245q0 -107 11.5 -160.5t37 -73.5t76.5 -20q62 0 111 65l122 -123q-84 -125 -258 -125
q-162 0 -231.5 86.5t-69.5 274.5z" />
    <glyph glyph-name="d" unicode="d" horiz-adv-x="702" 
d="M57 303v412q0 173 52.5 252.5t166.5 79.5q55 0 97.5 -22t64.5 -54v504h195v-1475h-146l-20 92q-80 -110 -201 -110q-119 0 -164 78.5t-45 242.5zM258 281q0 -69 17.5 -93t60.5 -24q25 0 53 16t49 45v586q-42 57 -96 57q-84 0 -84 -116v-471z" />
    <glyph glyph-name="e" unicode="e" horiz-adv-x="706" 
d="M57 354v332q0 187 68.5 274t222.5 87q46 0 84 -8t66 -20.5t50 -35t37 -44t25 -54.5t16 -60.5t9 -68t3.5 -70.5t0.5 -74v-141h-383v-68q0 -147 26 -197t115 -50q82 0 131 65l121 -121q-90 -127 -280 -127q-174 0 -243 93t-69 288zM258 629h182q-1 58 -1.5 86t-3.5 62.5
t-8.5 47.5t-16 27.5t-25.5 18t-37 3.5q-61 0 -75.5 -47t-14.5 -198z" />
    <glyph glyph-name="f" unicode="f" horiz-adv-x="512" 
d="M10 840v147l113 27v153q0 180 61 258t207 78q61 0 121 -20v-174q-35 10 -96 10q-28 0 -46.5 -9t-29 -22.5t-16 -39t-6.5 -47.5t-1 -60v-119h177v-182h-177v-840h-194v840h-113z" />
    <glyph glyph-name="g" unicode="g" horiz-adv-x="702" 
d="M57 315v400q0 173 52.5 252.5t166.5 79.5q66 0 113.5 -24t87.5 -89l17 88h139v-989q0 -92 -7.5 -151.5t-29 -109t-61 -76t-101 -40.5t-153.5 -14q-89 0 -170 22v166q112 -18 151 -18q108 0 142 41t34 174v55q-70 -80 -172 -80q-113 0 -161 74t-48 239zM258 301
q0 -69 17.5 -93t60.5 -24q56 0 102 62v565q-42 57 -96 57q-84 0 -84 -116v-451z" />
    <glyph glyph-name="h" unicode="h" horiz-adv-x="681" 
d="M70 0v1475h194v-517q32 39 79 64t95 25q31 0 55 -5t42 -16.5t31 -24.5t21.5 -35t13.5 -42t7.5 -51.5t3 -57t0.5 -65.5v-750h-194v713q0 78 -13.5 101.5t-50.5 23.5q-43 0 -90 -41v-797h-194z" />
    <glyph glyph-name="i" unicode="i" horiz-adv-x="342" 
d="M57 1264q0 52 32.5 85t82.5 33q47 0 80 -33t33 -79q0 -50 -32.5 -82.5t-80.5 -32.5q-51 0 -83 30.5t-32 78.5zM74 0v1022h194v-1022h-194z" />
    <glyph glyph-name="j" unicode="j" horiz-adv-x="342" 
d="M-104 -160q38 -6 79 -6q62 0 80.5 34.5t18.5 129.5v1024h194v-1006q0 -67 -4 -113.5t-18 -95.5t-39.5 -78t-70.5 -48t-109 -19q-72 0 -131 16v162zM57 1264q0 52 32.5 85t82.5 33q47 0 80 -33t33 -79q0 -50 -32.5 -82.5t-80.5 -32.5q-51 0 -83 30.5t-32 78.5z" />
    <glyph glyph-name="k" unicode="k" horiz-adv-x="667" 
d="M70 0v1475h194v-918l180 465h203l-194 -487l215 -535h-217l-187 489v-489h-194z" />
    <glyph glyph-name="l" unicode="l" horiz-adv-x="333" 
d="M70 0v1475h194v-1475h-194z" />
    <glyph glyph-name="m" unicode="m" horiz-adv-x="1030" 
d="M70 0v1022h137l20 -100q20 25 36.5 42t43.5 38.5t60.5 33t70.5 11.5q43 0 74 -10.5t47 -30t23 -33.5t12 -33q43 52 87.5 79.5t104.5 27.5q49 0 82 -14.5t51.5 -36.5t28 -64t11.5 -80t2 -102v-750h-195v719q0 78 -13.5 101.5t-50.5 23.5q-43 0 -90 -41v-803h-194v719
q0 78 -13.5 101.5t-50.5 23.5q-43 0 -90 -41v-803h-194z" />
    <glyph glyph-name="n" unicode="n" horiz-adv-x="681" 
d="M70 0v1022h137l20 -100q20 25 36.5 42t43.5 38.5t60.5 33t70.5 11.5q31 0 55 -5t42 -16.5t31 -24.5t21.5 -35t13.5 -42t7.5 -51.5t3 -57t0.5 -65.5v-750h-194v713q0 78 -13.5 101.5t-50.5 23.5q-43 0 -90 -41v-797h-194z" />
    <glyph glyph-name="o" unicode="o" horiz-adv-x="692" 
d="M55 334v352q0 187 68.5 274t222.5 87q153 0 222 -86t69 -275v-352q0 -189 -69 -275t-222 -86q-154 0 -222.5 87t-68.5 274zM256 315q0 -86 18.5 -125.5t71.5 -39.5q25 0 41.5 8t26.5 20t14.5 35.5t6 45t1.5 56.5v394q0 35 -1.5 56.5t-6 45t-14.5 35.5t-26.5 20t-41.5 8
q-53 0 -71.5 -39.5t-18.5 -125.5v-394z" />
    <glyph glyph-name="p" unicode="p" horiz-adv-x="700" 
d="M70 -338v1360h137l18 -90q92 115 209 115q52 0 88.5 -13t65.5 -45.5t43 -91t14 -145.5v-449q0 -59 -5 -102.5t-19 -85t-38 -67.5t-64 -42t-95 -16q-90 0 -160 73v-401h-194zM264 236q21 -29 49.5 -45.5t53.5 -16.5q43 0 60 23.5t17 93.5v461q0 116 -84 116q-54 0 -96 -57
v-575z" />
    <glyph glyph-name="q" unicode="q" horiz-adv-x="702" 
d="M57 303v412q0 173 52.5 252.5t166.5 79.5q66 0 113.5 -24t87.5 -89l17 88h139v-1360h-195v399q-27 -36 -73 -57.5t-99 -21.5q-119 0 -164 78.5t-45 242.5zM258 281q0 -69 17.5 -93t60.5 -24q25 0 53 16t49 45v586q-42 57 -96 57q-84 0 -84 -116v-471z" />
    <glyph glyph-name="r" unicode="r" horiz-adv-x="477" 
d="M70 0v1022h137l24 -143q36 96 92 131.5t142 38.5v-215q-69 -1 -115 -26.5t-86 -82.5v-725h-194z" />
    <glyph glyph-name="s" unicode="s" horiz-adv-x="593" 
d="M25 82l106 133l8 -7q8 -7 10 -9t10.5 -8t13 -9t13.5 -8t17 -7.5t18 -5.5t20.5 -4t22.5 -1q55 0 82 28.5t27 91.5q0 42 -23.5 76t-58 56t-75.5 51.5t-75.5 60.5t-58 85.5t-23.5 123.5q0 141 72 229.5t205 88.5q53 0 94.5 -9.5t69 -28.5t39.5 -30.5t30 -32.5l-108 -127
l-11 11q-12 10 -15.5 12.5t-15 10t-20 10.5t-22 6t-27.5 3q-100 0 -100 -120q0 -39 17.5 -70t45.5 -53t61.5 -43t67.5 -46.5t62 -56.5t45.5 -79.5t17.5 -110.5q0 -160 -79 -238t-218 -78q-164 0 -245 105z" />
    <glyph glyph-name="t" unicode="t" horiz-adv-x="489" 
d="M10 840v147l115 27l20 231l172 41v-264h156v-182h-156v-596q0 -54 16 -71t66 -17q30 0 78 6v-164q-81 -25 -153 -25q-106 0 -153.5 50t-47.5 184v633h-113z" />
    <glyph glyph-name="u" unicode="u" horiz-adv-x="681" 
d="M70 236v786h194v-713q0 -79 13.5 -102t52.5 -23q43 0 88 41v797h194v-1022h-137l-20 92q-26 -33 -48.5 -54.5t-62 -42t-82.5 -20.5q-52 0 -89 15.5t-56.5 38t-30.5 60t-13.5 69t-2.5 78.5z" />
    <glyph glyph-name="v" unicode="v" horiz-adv-x="669" 
d="M10 1022h205l127 -737l123 737h194l-208 -1022h-232z" />
    <glyph glyph-name="w" unicode="w" horiz-adv-x="997" 
d="M16 1022h195l90 -717l123 717h158l125 -717l86 717h188l-164 -1022h-211l-106 594l-107 -594h-211z" />
    <glyph glyph-name="x" unicode="x" horiz-adv-x="626" 
d="M-4 0l213 522l-199 500h205l102 -313l109 313h190l-200 -496l215 -526h-203l-121 342l-114 -342h-197z" />
    <glyph glyph-name="y" unicode="y" horiz-adv-x="673" 
d="M12 1022h205l127 -674l123 674h195l-234 -983q-20 -83 -36 -136t-39 -103.5t-50.5 -78t-66.5 -43.5t-91 -16q-66 0 -98 8v162q23 -2 47 -2q71 0 97.5 42.5t52.5 178.5z" />
    <glyph glyph-name="z" unicode="z" horiz-adv-x="585" 
d="M23 0v166l319 674h-297v182h508v-164l-317 -672h327v-186h-540z" />
    <glyph glyph-name="braceleft" unicode="{" horiz-adv-x="512" 
d="M37 535v202q54 0 68 28.5t14 98.5v250q0 98 12.5 166.5t32 106t54 58t65.5 25.5t79 5h134v-183h-56q-32 0 -47.5 -0.5t-31.5 -7.5t-21 -15t-10 -31t-5.5 -47t-0.5 -71v-219q0 -57 -3.5 -94t-14.5 -78.5t-36 -65.5t-65 -30q39 -9 64.5 -29t36.5 -49.5t14.5 -55.5t3.5 -61
v-428q0 -105 20 -135.5t88 -30.5h64v-182h-144q-61 0 -100.5 11t-66.5 34.5t-41 69.5t-19.5 105.5t-5.5 152.5v342q0 94 -13.5 126t-68.5 32z" />
    <glyph glyph-name="bar" unicode="|" horiz-adv-x="471" 
d="M137 -338v1813h203v-1813h-203z" />
    <glyph glyph-name="braceright" unicode="}" horiz-adv-x="512" 
d="M37 -156h63q68 0 88.5 30.5t20.5 135.5v428q0 35 3.5 61t14.5 55.5t36.5 49.5t64.5 29q-40 6 -65 30t-36 65.5t-14.5 78.5t-3.5 94v219q0 47 -0.5 71t-5.5 47t-10.5 31t-21.5 15t-31.5 7.5t-47.5 0.5h-55v183h133q49 0 80 -5t65.5 -25.5t53.5 -58t32 -106t13 -166.5v-250
q0 -70 14 -98.5t68 -28.5v-202q-55 0 -68.5 -32t-13.5 -126v-342q0 -66 -2.5 -113.5t-9 -89t-18.5 -68.5t-29 -48t-42.5 -32t-57.5 -16.5t-75 -5.5h-143v182z" />
    <glyph glyph-name="asciitilde" unicode="~" horiz-adv-x="1028" 
d="M256.5 375.5q2.5 49.5 14.5 96t47.5 91.5t89.5 74q15 4 14 0q-63 -45 -91 -108t-20.5 -123t36.5 -112t73 -81q8 0 8 6q-12 39 -13.5 58.5t2.5 46.5t3 57q-3 73 22.5 133.5t102.5 114.5q-48 60 14 114q12 9 26 14t30.5 6t31.5 -10t25 -34q12 -25 12 -40.5t-7 -21
t-22 -10.5q-42 -25 -43 -26q-16 -16 -26.5 -17t-24.5 8q-40 -49 -55.5 -104.5t-6 -102t40 -82.5t76.5 -49q20 -4 27 -26q13 -25 28.5 -27t30.5 4.5t39 -8.5q30 -10 39 -4t18.5 18.5t20.5 12.5q88 0 136 60t46 142q0 9 9 0q21 -85 8.5 -185.5t-45 -187.5t-64.5 -108
q-34 -22 -66.5 -28.5t-52 15t-6.5 75.5q20 93 -7 123q-17 19 -36 -6q-32 -42 -13 -133q3 -19 9 -38q1 -5 9 -19.5t10.5 -23.5t-9 -19t-42.5 -13q-24 -2 -44.5 0t-38 10t-31 14.5t-28 24t-23 26.5t-22 34t-18.5 35t-19.5 40.5t-19.5 40.5q-1 7 -2.5 6.5t-1.5 -4.5
q-2 -17 3.5 -38.5t10 -35.5t4.5 -26.5t-13 -18.5t-42 -6q-32 2 -51.5 11t-44 44.5t-45.5 102.5q-10 38 -9 72t-4 59q-12 37 -9.5 86.5zM576.5 379.5q6.5 -24.5 27.5 -33.5q21 -10 37 -1t31 31t22 27q2 0 2 7q0 39 -17.5 60t-49.5 7q-32 -16 -45.5 -44.5t-7 -53zM670 281
q4 12 26 12q42 0 66 -8q9 -2 13.5 -9t1 -14t-14.5 -8t-19.5 -4t-12.5 -6t-7 -5t-4.5 -0.5t-3.5 7.5q-18 16 -33 18q-16 5 -12 17zM672 211q2 -27 41.5 -32.5t50.5 22.5h-2q-33 0 -88 10h-2zM793 391q-3 3 0 8q26 77 73 50q24 -15 34.5 -43.5t5 -54t-22.5 -34.5
q-20 -9 -31 -9t-20.5 11.5t-14 23t-11.5 26.5t-13 22zM881 680q-28 -46 4 -59q38 -21 51 -43q13 -19 30.5 -15t31.5 17t24 30q18 43 -27 88q-20 23 -56.5 21.5t-57.5 -39.5z" />
    <glyph glyph-name="nbspace" unicode="&#xa0;" horiz-adv-x="462" 
 />
    <glyph glyph-name="exclamdown" unicode="&#xa1;" horiz-adv-x="563" 
d="M135 915q0 57 38.5 94.5t98.5 37.5t99 -39.5t39 -100.5q0 -56 -39.5 -96.5t-98.5 -40.5t-98 40.5t-39 104.5zM172 -442v1030h199v-1030h-199z" />
    <glyph glyph-name="cent" unicode="&#xa2;" horiz-adv-x="757" 
d="M119 563v342q0 62 4.5 107.5t18 92.5t37 78t64.5 54.5t97 32.5v205h158v-205q114 -21 176 -125l-142 -117q-41 68 -104 68q-29 0 -49 -10.5t-31.5 -27t-18 -45t-8.5 -57t-2 -71.5v-246q0 -107 11.5 -160.5t37 -73.5t76.5 -20q61 0 111 66l123 -123q-68 -99 -180 -119
v-209h-158v209q-120 20 -170.5 104.5t-50.5 249.5z" />
    <glyph glyph-name="sterling" unicode="&#xa3;" horiz-adv-x="757" 
d="M55 655v183h103q-14 37 -25.5 105t-11.5 136q0 100 20.5 176.5t52.5 122.5t77.5 75t89.5 39.5t94 10.5q89 0 159.5 -38.5t106.5 -96.5l-113 -129q-2 2 -10.5 12.5t-12.5 14.5l-13.5 13.5t-16.5 14.5t-18 12t-21.5 10.5t-24 6t-28.5 2.5q-68 0 -103.5 -59.5t-35.5 -196.5
q0 -112 34 -231h240v-183h-207q10 -40 10 -118q0 -122 -46 -220t-89 -127h402v-190h-600v176q14 7 33 27.5t43 60t40.5 110t16.5 156.5q0 69 -8 125h-138z" />
    <glyph glyph-name="currency" unicode="&#xa4;" horiz-adv-x="757" 
d="M18 393l84 86q-59 88 -59 195q0 106 61 192l-86 90l82 80l86 -88q84 62 195 62q104 0 190 -60l86 88l82 -82l-84 -86q64 -90 64 -196q0 -107 -64 -197l84 -82l-82 -82l-84 82q-85 -59 -192 -59q-112 0 -195 61l-88 -86zM182 674q0 -82 57.5 -139.5t139.5 -57.5
q81 0 137.5 57.5t56.5 139.5t-56 139t-138 57t-139.5 -57t-57.5 -139z" />
    <glyph glyph-name="yen" unicode="&#xa5;" horiz-adv-x="757" 
d="M47 825v170h129l-129 480h223l117 -590l117 590h209l-129 -480h129v-170h-178l-43 -155h200v-170h-211v-500h-202v500h-211v170h200l-43 155h-178z" />
    <glyph glyph-name="brokenbar" unicode="&#xa6;" horiz-adv-x="471" 
d="M137 -338v772h203v-772h-203zM137 715v760h203v-760h-203z" />
    <glyph glyph-name="section" unicode="&#xa7;" horiz-adv-x="720" 
d="M37 557q0 59 17 113t45.5 94.5t52.5 66t51 46.5q-25 27 -42 52t-34.5 87t-17.5 143t21 143.5t53 99.5t76.5 60.5t86 32t86.5 8.5q96 0 156 -31t90 -71l-113 -127q-20 17 -29.5 24.5t-37.5 19t-58 11.5q-66 0 -101.5 -36.5t-35.5 -104.5q0 -62 22.5 -109t58 -78t79 -59
t87 -59.5t79 -70.5t58 -102t22.5 -145q0 -67 -16.5 -125.5t-43.5 -100t-53 -68t-55 -46.5q86 -86 86 -227q0 -94 -25 -162.5t-70.5 -107.5t-102 -56.5t-126.5 -17.5q-95 0 -157.5 31.5t-94.5 72.5l109 136q62 -62 139 -62q68 0 101.5 36t33.5 97q0 47 -22 85t-57 65.5
t-77 54t-84.5 60t-77.5 74.5t-57 106t-22 147zM213 590q0 -86 44 -144.5t179 -134.5q94 80 94 203q0 95 -40.5 144t-176.5 130q-38 -28 -69 -81.5t-31 -116.5z" />
    <glyph glyph-name="dieresis" unicode="&#xa8;" horiz-adv-x="671" 
d="M72 1264q0 52 32 85t82 33q47 0 80 -33t33 -79q0 -50 -32.5 -82.5t-80.5 -32.5q-51 0 -82.5 30.5t-31.5 78.5zM373 1264q0 52 32 85t82 33q47 0 80 -33t33 -79q0 -50 -32.5 -82.5t-80.5 -32.5q-51 0 -82.5 30.5t-31.5 78.5z" />
    <glyph glyph-name="copyright" unicode="&#xa9;" horiz-adv-x="1339" 
d="M96 563v350q0 71 4.5 127.5t19.5 120t40 111t68 93t102.5 74.5t145 46.5t192.5 17.5q108 0 194 -17t145.5 -45t103 -73t68.5 -92.5t40 -111.5t19.5 -122t4.5 -133v-342q0 -75 -4.5 -133t-19.5 -122t-40 -111.5t-68.5 -92.5t-103 -73t-145.5 -45t-194 -17
q-107 0 -192.5 17.5t-145 46.5t-102.5 74.5t-68 93t-40 111t-19.5 120t-4.5 127.5zM291 539q0 -216 84 -299.5t297 -83.5q212 0 295.5 83t83.5 300v401q0 215 -83.5 298t-295.5 83q-213 0 -297 -83.5t-84 -297.5v-401zM492 334v772h163q36 0 61.5 -2.5t57 -13t50.5 -29.5
t32.5 -54t13.5 -85v-37q0 -69 -18 -105t-64 -53q31 -12 44 -46.5t20 -96.5l31 -250h-144l-20 186q-11 92 -19.5 115.5t-35.5 23.5h-29v-325h-143zM635 774h20q47 0 59.5 17.5t12.5 78.5v54q0 37 -12.5 47t-57.5 10h-22v-207z" />
    <glyph glyph-name="ordfeminine" unicode="&#xaa;" horiz-adv-x="540" 
d="M57 874v66q0 121 42.5 177.5t144.5 56.5q25 0 49.5 -4t36.5 -8l12 -3v84q0 69 -18 89t-80 20q-56 0 -125 -31l-47 113q89 51 202 51q41 0 69 -4t56.5 -18t45.5 -38.5t27.5 -67t10.5 -102.5v-573h-102l-19 78q-71 -92 -153 -92q-81 0 -116.5 45t-35.5 161zM193 895
q0 -56 14.5 -75t50.5 -19q45 0 84 51v197q-26 14 -53 14q-54 0 -75 -32t-21 -107v-29z" />
    <glyph glyph-name="guillemotleft" unicode="&#xab;" horiz-adv-x="927" 
d="M98 535l256 419l125 -71l-170 -348l170 -349l-125 -71zM414 535l256 419l125 -71l-170 -348l170 -349l-125 -71z" />
    <glyph glyph-name="logicalnot" unicode="&#xac;" horiz-adv-x="757" 
d="M33 621v190h692v-502h-186v312h-506z" />
    <glyph glyph-name="uni00AD" unicode="&#xad;" horiz-adv-x="503" 
d="M29 473v182h446v-182h-446z" />
    <glyph glyph-name="registered" unicode="&#xae;" horiz-adv-x="1339" 
d="M96 563v350q0 71 4.5 127.5t19.5 120t40 111t68 93t102.5 74.5t145 46.5t192.5 17.5q108 0 194 -17t145.5 -45t103 -73t68.5 -92.5t40 -111.5t19.5 -122t4.5 -133v-342q0 -75 -4.5 -133t-19.5 -122t-40 -111.5t-68.5 -92.5t-103 -73t-145.5 -45t-194 -17
q-107 0 -192.5 17.5t-145 46.5t-102.5 74.5t-68 93t-40 111t-19.5 120t-4.5 127.5zM295 539q0 -216 82 -299.5t295 -83.5q212 0 293.5 83t81.5 300v401q0 216 -82 298.5t-293 82.5q-212 0 -294.5 -83t-82.5 -298v-401zM434 627v178q0 57 5.5 100t21.5 83.5t43.5 66.5
t74 41.5t109.5 15.5q145 0 207 -108l-117 -97q-33 56 -86 56q-56 0 -73 -42t-17 -133v-100q0 -129 20.5 -170t84.5 -41q52 0 90 55l102 -102q-67 -102 -215 -102q-133 0 -191.5 71.5t-58.5 227.5z" />
    <glyph glyph-name="macron" unicode="&#xaf;" horiz-adv-x="589" 
d="M43 1178v182h504v-182h-504z" />
    <glyph glyph-name="degree" unicode="&#xb0;" horiz-adv-x="780" 
d="M57 1116q0 201 63.5 294t227.5 93t227.5 -93t63.5 -294t-63.5 -294t-227.5 -93t-227.5 93t-63.5 294zM233 1116q0 -109 23.5 -164t91.5 -55q30 0 51.5 11t34 28.5t19 47.5t8.5 59t2 73q0 121 -22.5 172t-92.5 51q-72 0 -93.5 -51t-21.5 -172z" />
    <glyph glyph-name="plusminus" unicode="&#xb1;" horiz-adv-x="757" 
d="M33 0v195h692v-195h-692zM33 621v190h254v311h186v-311h252v-190h-252v-312h-186v312h-254z" />
    <glyph glyph-name="twosuperior" unicode="&#xb2;" 
d="M57 1415q54 86 174 86q95 0 147 -53t52 -154q0 -57 -12 -102t-31 -73t-42 -51t-45.5 -42.5t-41.5 -40t-31 -51.5t-12 -70v-39h203v-116h-336v112q0 94 23.5 152t76.5 112q5 5 22 21.5t24 24t21 23.5t20.5 28.5t14.5 30.5t11.5 37.5t3.5 41.5q0 57 -17 79t-53 22
q-49 0 -92 -54z" />
    <glyph glyph-name="threesuperior" unicode="&#xb3;" 
d="M61 774l78 84q45 -49 92 -49q34 0 49 19.5t15 60.5v88q0 30 -5 47.5t-17 25t-23 9.5t-33 2h-39v104h39q35 0 53.5 17t18.5 65v70q0 41 -14 57.5t-44 16.5q-42 0 -81 -39l-76 82q55 67 166 67q95 0 136.5 -47t41.5 -137v-47q0 -67 -15 -101.5t-59 -50.5q47 -14 63.5 -47.5
t16.5 -103.5v-56q0 -217 -197 -217q-108 0 -166 80z" />
    <glyph glyph-name="acute" unicode="&#xb4;" horiz-adv-x="487" 
d="M55 1223l267 235l110 -178l-305 -162z" />
    <glyph glyph-name="uni00B5" unicode="&#xb5;" horiz-adv-x="710" 
d="M70 -338v1360h194v-713q0 -79 13.5 -102t52.5 -23q43 0 88 41v797h194v-1022h-137l-20 92q-23 -28 -38 -43t-39 -33t-54 -26t-68 -8v-320h-186z" />
    <glyph glyph-name="paragraph" unicode="&#xb6;" horiz-adv-x="1044" 
d="M25 1098v22q0 93 21.5 158t57 103t96.5 59.5t124.5 28t156.5 6.5h473v-1833h-194v1638h-133v-1638h-195v1079h-16q-71 0 -122.5 6t-97.5 21t-76 42t-52.5 68.5t-32.5 100.5t-10 139z" />
    <glyph glyph-name="periodcentered" unicode="&#xb7;" horiz-adv-x="540" 
d="M111 678q0 64 39 104.5t98 40.5t98 -40t39 -97q0 -61 -38.5 -100t-98.5 -39t-98.5 37t-38.5 94z" />
    <glyph glyph-name="cedilla" unicode="&#xb8;" horiz-adv-x="724" 
d="M250 -360l29 88q45 -15 65 -15q19 0 31.5 2.5t24.5 17.5t12 42q0 61 -64 61q-37 0 -61 -8l39 172h116l-20 -84q26 0 46.5 -5t41.5 -18t33 -42t12 -72q0 -92 -49.5 -130t-124.5 -38q-83 0 -131 29z" />
    <glyph glyph-name="onesuperior" unicode="&#xb9;" 
d="M41 1346l203 141h104v-778h-127v618l-117 -78z" />
    <glyph glyph-name="ordmasculine" unicode="&#xba;" horiz-adv-x="555" 
d="M57 944v266q0 143 52 209t170 66q117 0 168 -64.5t51 -210.5v-266q0 -147 -51 -211.5t-168 -64.5q-119 0 -170.5 66t-51.5 210zM203 930q0 -70 15 -102.5t61 -32.5q20 0 33.5 6.5t21.5 17t12 29t5 36.5t1 46v297q0 28 -1 46t-5 36.5t-12 29t-21.5 17t-33.5 6.5
q-46 0 -61 -32.5t-15 -102.5v-297z" />
    <glyph glyph-name="guillemotright" unicode="&#xbb;" horiz-adv-x="927" 
d="M133 186l170 349l-170 348l125 71l256 -419l-256 -420zM449 186l169 349l-169 348l124 71l256 -419l-256 -420z" />
    <glyph glyph-name="onequarter" unicode="&#xbc;" horiz-adv-x="1069" 
d="M41 1346l203 141h104v-778h-127v618l-117 -78zM215 16l508 1500l121 -46l-508 -1499zM627 156v90l223 532h106v-518h72v-104h-72v-156h-110v156h-219zM729 260h117v281z" />
    <glyph glyph-name="onehalf" unicode="&#xbd;" horiz-adv-x="1069" 
d="M41 1346l203 141h104v-778h-127v618l-117 -78zM215 16l508 1500l121 -46l-508 -1499zM643 707l80 -76q42 53 92 53q36 0 53 -21.5t17 -78.5q0 -22 -3.5 -41.5t-11.5 -37.5t-14.5 -30.5t-20.5 -28.5t-21 -23.5t-24 -24t-22 -21.5q-53 -54 -76.5 -112t-23.5 -152v-113h336
v117h-203v39q0 39 12 70t31 51.5t41.5 40t45.5 42.5t42 51t31 73t12 102q0 101 -52 154t-147 53q-120 0 -174 -86z" />
    <glyph glyph-name="threequarters" unicode="&#xbe;" horiz-adv-x="1069" 
d="M31 774q58 -80 166 -80q196 0 196 217v56q0 70 -16.5 103.5t-63.5 47.5q44 16 59 50.5t15 101.5v47q0 90 -41.5 137t-136.5 47q-111 0 -166 -67l76 -82q39 39 82 39q30 0 43.5 -16t13.5 -58v-70q0 -48 -18.5 -65t-53.5 -17h-39v-104h39q22 0 33 -2t23 -9.5t17 -25
t5 -47.5v-88q0 -42 -15 -61t-48 -19q-47 0 -92 49zM215 16l508 1500l121 -46l-508 -1499zM627 156v90l223 532h106v-518h72v-104h-72v-156h-110v156h-219zM729 260h117v281z" />
    <glyph glyph-name="questiondown" unicode="&#xbf;" horiz-adv-x="700" 
d="M25 -141q0 52 2.5 84.5t12.5 74t30.5 76.5t56 79t88.5 95q31 30 42.5 49t17.5 53.5t6 104.5v113h190v-156q0 -101 -12.5 -140t-73.5 -102q-82 -84 -107 -121q-55 -80 -55 -188q0 -96 34.5 -138t104.5 -42q86 0 154 72l115 -121q-36 -50 -105 -86.5t-174 -36.5
q-161 0 -244 83.5t-83 246.5zM240 907q0 61 38.5 100.5t98.5 39.5t98.5 -37.5t38.5 -94.5q0 -64 -39 -104.5t-98 -40.5t-98 40t-39 97z" />
    <glyph glyph-name="Agrave" unicode="&#xc0;" horiz-adv-x="831" 
d="M23 0l256 1475h256l274 -1475h-219l-53 346h-254l-52 -346h-208zM227 1704l111 178l266 -235l-72 -105zM311 553h191l-99 614z" />
    <glyph glyph-name="Aacute" unicode="&#xc1;" horiz-adv-x="831" 
d="M23 0l256 1475h256l274 -1475h-219l-53 346h-254l-52 -346h-208zM207 1647l266 235l111 -178l-305 -162zM311 553h191l-99 614z" />
    <glyph glyph-name="Acircumflex" unicode="&#xc2;" horiz-adv-x="831" 
d="M23 0l256 1475h256l274 -1475h-219l-53 346h-254l-52 -346h-208zM152 1653l251 215l252 -215l-73 -105l-179 97l-178 -97zM311 553h191l-99 614z" />
    <glyph glyph-name="Atilde" unicode="&#xc3;" horiz-adv-x="831" 
d="M23 0l256 1475h256l274 -1475h-219l-53 346h-254l-52 -346h-208zM141 1659q35 72 84 105.5t97 33.5q45 0 100 -18.5t74 -18.5q53 0 88 51l82 -83q-34 -68 -80.5 -106t-96.5 -38q-43 0 -99.5 20.5t-74.5 20.5q-54 0 -88 -51zM311 553h191l-99 614z" />
    <glyph glyph-name="Adieresis" unicode="&#xc4;" horiz-adv-x="831" 
d="M23 0l256 1475h256l274 -1475h-219l-53 346h-254l-52 -346h-208zM102 1712q0 50 34.5 85.5t86.5 35.5t86.5 -35.5t34.5 -85.5q0 -55 -34 -90t-87 -35t-87 35t-34 90zM311 553h191l-99 614zM465 1712q0 50 34.5 85.5t86.5 35.5t86.5 -35.5t34.5 -85.5q0 -55 -34 -90
t-87 -35t-87 35t-34 90z" />
    <glyph glyph-name="Aring" unicode="&#xc5;" horiz-adv-x="831" 
d="M23 0l256 1475h256l274 -1475h-219l-53 346h-254l-52 -346h-208zM199 1753q0 94 59 154.5t148 60.5q87 0 145.5 -59.5t58.5 -145.5q0 -95 -57 -154t-147 -59q-91 0 -149 57t-58 146zM311 553h191l-99 614zM322 1759q0 -49 23 -76.5t63 -27.5q38 0 62 28.5t24 79.5
q0 44 -25 72.5t-61 28.5q-38 0 -62 -29t-24 -76z" />
    <glyph glyph-name="AE" unicode="&#xc6;" horiz-adv-x="1177" 
d="M23 0l405 1475h692v-209h-350v-402h338v-207h-338v-446h365v-211h-568v346h-239l-88 -346h-217zM377 553h190v774z" />
    <glyph glyph-name="Ccedilla" unicode="&#xc7;" horiz-adv-x="714" 
d="M70 424v629q0 82 7 143t28 122t57 99t98.5 62t147.5 24q110 0 175 -34t113 -99l-133 -131q-58 72 -141 72q-75 0 -106 -49t-31 -166v-709q0 -112 29 -163.5t104 -51.5q40 0 76 14.5t50 26t38 33.5l120 -152q-37 -45 -104.5 -80.5t-159.5 -38.5l-12 -55q28 0 49.5 -5
t44 -19t35 -45t12.5 -78q0 -53 -16 -90.5t-44 -56.5t-58.5 -27.5t-67.5 -8.5q-86 0 -141 31l30 96q40 -16 72 -16q15 0 25 1.5t23 7.5t19.5 21t6.5 38q0 65 -70 65q-39 0 -67 -8l36 158q-74 13 -123.5 49t-75.5 96t-36 129.5t-10 165.5z" />
    <glyph glyph-name="Egrave" unicode="&#xc8;" horiz-adv-x="706" 
d="M76 0v1475h573v-209h-370v-402h358v-207h-358v-446h385v-211h-588zM186 1704l111 178l266 -235l-71 -105z" />
    <glyph glyph-name="Eacute" unicode="&#xc9;" horiz-adv-x="706" 
d="M76 0v1475h573v-209h-370v-402h358v-207h-358v-446h385v-211h-588zM162 1647l266 235l111 -178l-306 -162z" />
    <glyph glyph-name="Ecircumflex" unicode="&#xca;" horiz-adv-x="706" 
d="M76 0v1475h573v-209h-370v-402h358v-207h-358v-446h385v-211h-588zM113 1647l252 215l251 -215l-73 -105l-178 96l-179 -96z" />
    <glyph glyph-name="Edieresis" unicode="&#xcb;" horiz-adv-x="706" 
d="M59 1712q0 50 34.5 85.5t86.5 35.5t86.5 -35.5t34.5 -85.5q0 -55 -34 -90t-87 -35t-87 35t-34 90zM76 0v1475h573v-209h-370v-402h358v-207h-358v-446h385v-211h-588zM422 1712q0 50 34.5 85.5t86.5 35.5t86.5 -35.5t34.5 -85.5q0 -55 -34 -90t-87 -35t-87 35t-34 90z
" />
    <glyph glyph-name="Igrave" unicode="&#xcc;" horiz-adv-x="354" 
d="M-10 1704l110 178l267 -235l-72 -105zM76 0v1475h203v-1475h-203z" />
    <glyph glyph-name="Iacute" unicode="&#xcd;" horiz-adv-x="354" 
d="M-10 1647l266 235l111 -178l-306 -162zM76 0v1475h203v-1475h-203z" />
    <glyph glyph-name="Icircumflex" unicode="&#xce;" horiz-adv-x="354" 
d="M-74 1647l252 215l252 -215l-74 -105l-178 96l-178 -96zM76 0v1475h203v-1475h-203z" />
    <glyph glyph-name="Idieresis" unicode="&#xcf;" horiz-adv-x="354" 
d="M-125 1712q0 50 34.5 85.5t86.5 35.5t86.5 -35.5t34.5 -85.5q0 -55 -34 -90t-87 -35t-87 35t-34 90zM76 0v1475h203v-1475h-203zM238 1712q0 50 34 85.5t86 35.5t86.5 -35.5t34.5 -85.5q0 -55 -34 -90t-87 -35t-86.5 35t-33.5 90z" />
    <glyph glyph-name="Eth" unicode="&#xd0;" horiz-adv-x="821" 
d="M-53 672v178h129v625h237q90 0 152 -6.5t113.5 -25t82.5 -48.5t52.5 -80t30 -116t8.5 -159v-596q0 -99 -8 -167t-30 -119t-52.5 -80.5t-85 -47.5t-117.5 -24t-158 -6h-225v672h-129zM279 203h51q52 0 83.5 2.5t56.5 14.5t37 26t19.5 48t9 69.5t1.5 101.5v575
q0 65 -6 105.5t-17 67.5t-37 39.5t-56.5 17t-84.5 4.5h-57v-424h149v-178h-149v-469z" />
    <glyph glyph-name="Ntilde" unicode="&#xd1;" horiz-adv-x="815" 
d="M76 0v1475h217l272 -992v992h174v-1475h-213l-276 1008v-1008h-174zM141 1675q36 72 84.5 106t96.5 34q45 0 100 -18.5t74 -18.5q53 0 88 51l82 -84q-33 -68 -80 -105.5t-97 -37.5q-43 0 -99.5 20t-74.5 20q-54 0 -88 -51z" />
    <glyph glyph-name="Ograve" unicode="&#xd2;" horiz-adv-x="827" 
d="M70 461v555q0 63 1 96.5t7.5 93.5t18.5 94t37 78t60.5 67.5t91 40.5t126.5 17q72 0 128 -17.5t92 -41.5t61.5 -68.5t37.5 -79.5t18.5 -95t7.5 -93.5t1 -95.5v-547q0 -62 -1 -95.5t-7.5 -94t-18.5 -95t-37.5 -79.5t-61.5 -69t-92 -41.5t-128 -17.5q-71 0 -126.5 17
t-91 40.5t-60.5 67.5t-37 78.5t-18.5 94.5t-7.5 93.5t-1 96.5zM233 1704l111 178l266 -235l-71 -105zM285 444q0 -43 0.5 -64.5t2.5 -56.5t7 -52.5t14.5 -40.5t23.5 -33.5t34.5 -18.5t48.5 -8q27 0 47 8t33.5 18.5t22.5 33t14 40t7 52.5t2.5 56.5t0.5 65.5v592
q0 44 -0.5 65.5t-2.5 56.5t-7 52.5t-14 40.5t-22.5 33.5t-33.5 18.5t-47 8q-28 0 -48.5 -8t-34.5 -19t-23.5 -34t-14.5 -41t-7 -53.5t-2.5 -57.5t-0.5 -66v-588z" />
    <glyph glyph-name="Oacute" unicode="&#xd3;" horiz-adv-x="827" 
d="M70 461v555q0 63 1 96.5t7.5 93.5t18.5 94t37 78t60.5 67.5t91 40.5t126.5 17q72 0 128 -17.5t92 -41.5t61.5 -68.5t37.5 -79.5t18.5 -95t7.5 -93.5t1 -95.5v-547q0 -62 -1 -95.5t-7.5 -94t-18.5 -95t-37.5 -79.5t-61.5 -69t-92 -41.5t-128 -17.5q-71 0 -126.5 17
t-91 40.5t-60.5 67.5t-37 78.5t-18.5 94.5t-7.5 93.5t-1 96.5zM209 1647l266 235l111 -178l-305 -162zM285 444q0 -43 0.5 -64.5t2.5 -56.5t7 -52.5t14.5 -40.5t23.5 -33.5t34.5 -18.5t48.5 -8q27 0 47 8t33.5 18.5t22.5 33t14 40t7 52.5t2.5 56.5t0.5 65.5v592
q0 44 -0.5 65.5t-2.5 56.5t-7 52.5t-14 40.5t-22.5 33.5t-33.5 18.5t-47 8q-28 0 -48.5 -8t-34.5 -19t-23.5 -34t-14.5 -41t-7 -53.5t-2.5 -57.5t-0.5 -66v-588z" />
    <glyph glyph-name="Ocircumflex" unicode="&#xd4;" horiz-adv-x="827" 
d="M70 461v555q0 63 1 96.5t7.5 93.5t18.5 94t37 78t60.5 67.5t91 40.5t126.5 17q72 0 128 -17.5t92 -41.5t61.5 -68.5t37.5 -79.5t18.5 -95t7.5 -93.5t1 -95.5v-547q0 -62 -1 -95.5t-7.5 -94t-18.5 -95t-37.5 -79.5t-61.5 -69t-92 -41.5t-128 -17.5q-71 0 -126.5 17
t-91 40.5t-60.5 67.5t-37 78.5t-18.5 94.5t-7.5 93.5t-1 96.5zM158 1647l252 215l252 -215l-74 -105l-178 96l-179 -96zM285 444q0 -43 0.5 -64.5t2.5 -56.5t7 -52.5t14.5 -40.5t23.5 -33.5t34.5 -18.5t48.5 -8q27 0 47 8t33.5 18.5t22.5 33t14 40t7 52.5t2.5 56.5t0.5 65.5
v592q0 44 -0.5 65.5t-2.5 56.5t-7 52.5t-14 40.5t-22.5 33.5t-33.5 18.5t-47 8q-28 0 -48.5 -8t-34.5 -19t-23.5 -34t-14.5 -41t-7 -53.5t-2.5 -57.5t-0.5 -66v-588z" />
    <glyph glyph-name="Otilde" unicode="&#xd5;" horiz-adv-x="827" 
d="M70 461v555q0 63 1 96.5t7.5 93.5t18.5 94t37 78t60.5 67.5t91 40.5t126.5 17q72 0 128 -17.5t92 -41.5t61.5 -68.5t37.5 -79.5t18.5 -95t7.5 -93.5t1 -95.5v-547q0 -62 -1 -95.5t-7.5 -94t-18.5 -95t-37.5 -79.5t-61.5 -69t-92 -41.5t-128 -17.5q-71 0 -126.5 17
t-91 40.5t-60.5 67.5t-37 78.5t-18.5 94.5t-7.5 93.5t-1 96.5zM152 1675q36 73 84 106.5t96 33.5q45 0 100 -18.5t74 -18.5q53 0 88 51l82 -84q-33 -68 -79.5 -105.5t-96.5 -37.5q-43 0 -99.5 20t-74.5 20q-54 0 -88 -51zM285 444q0 -43 0.5 -64.5t2.5 -56.5t7 -52.5
t14.5 -40.5t23.5 -33.5t34.5 -18.5t48.5 -8q27 0 47 8t33.5 18.5t22.5 33t14 40t7 52.5t2.5 56.5t0.5 65.5v592q0 44 -0.5 65.5t-2.5 56.5t-7 52.5t-14 40.5t-22.5 33.5t-33.5 18.5t-47 8q-28 0 -48.5 -8t-34.5 -19t-23.5 -34t-14.5 -41t-7 -53.5t-2.5 -57.5t-0.5 -66v-588z
" />
    <glyph glyph-name="Odieresis" unicode="&#xd6;" horiz-adv-x="827" 
d="M70 461v555q0 63 1 96.5t7.5 93.5t18.5 94t37 78t60.5 67.5t91 40.5t126.5 17q72 0 128 -17.5t92 -41.5t61.5 -68.5t37.5 -79.5t18.5 -95t7.5 -93.5t1 -95.5v-547q0 -62 -1 -95.5t-7.5 -94t-18.5 -95t-37.5 -79.5t-61.5 -69t-92 -41.5t-128 -17.5q-71 0 -126.5 17
t-91 40.5t-60.5 67.5t-37 78.5t-18.5 94.5t-7.5 93.5t-1 96.5zM109 1712q0 50 34 85.5t86 35.5t86.5 -35.5t34.5 -85.5q0 -55 -34 -90t-87 -35t-86.5 35t-33.5 90zM285 444q0 -43 0.5 -64.5t2.5 -56.5t7 -52.5t14.5 -40.5t23.5 -33.5t34.5 -18.5t48.5 -8q27 0 47 8
t33.5 18.5t22.5 33t14 40t7 52.5t2.5 56.5t0.5 65.5v592q0 44 -0.5 65.5t-2.5 56.5t-7 52.5t-14 40.5t-22.5 33.5t-33.5 18.5t-47 8q-28 0 -48.5 -8t-34.5 -19t-23.5 -34t-14.5 -41t-7 -53.5t-2.5 -57.5t-0.5 -66v-588zM471 1712q0 50 34.5 85.5t86.5 35.5t86.5 -35.5
t34.5 -85.5q0 -55 -34 -90t-87 -35t-87 35t-34 90z" />
    <glyph glyph-name="multiply" unicode="&#xd7;" horiz-adv-x="757" 
d="M4 489l240 240l-240 240l135 135l240 -240l239 240l136 -135l-240 -240l240 -240l-136 -133l-239 238l-240 -238z" />
    <glyph glyph-name="Oslash" unicode="&#xd8;" horiz-adv-x="827" 
d="M-53 55l131 234q-8 37 -8 172v555q0 63 1 96.5t7.5 93.5t18.5 94t37 78t60.5 67.5t91 40.5t126.5 17q175 0 258 -96l73 133l129 -76l-127 -235q13 -50 13 -217v-547q0 -62 -1 -95.5t-7.5 -94t-18.5 -95t-37.5 -79.5t-61.5 -69t-92 -41.5t-128 -17.5q-102 0 -171.5 32
t-99.5 89l-65 -114zM285 680l250 494q-3 137 -119 137q-28 0 -48.5 -8t-34.5 -19t-23.5 -34t-14.5 -41t-7 -53.5t-2.5 -57.5t-0.5 -66v-352zM287 362q0 -94 28 -143t101 -49q27 0 47 8t33.5 18.5t22.5 33t14 40t7 52.5t2.5 56.5t0.5 65.5v418z" />
    <glyph glyph-name="Ugrave" unicode="&#xd9;" horiz-adv-x="827" 
d="M70 465q0 -63 1 -96.5t7.5 -93.5t18.5 -94.5t37 -78.5t60.5 -67.5t91 -40.5t126.5 -17q72 0 128 17.5t92 41.5t61.5 69t37.5 79.5t18.5 95t7.5 94t1 95.5v1006h-215v-1026q0 -44 -0.5 -65.5t-2.5 -56.5t-7 -52.5t-14 -40.5t-22.5 -33.5t-33.5 -18.5t-47 -8q-28 0 -48.5 8
t-34.5 18.5t-23.5 34t-14.5 41t-7 52.5t-2.5 56.5t-0.5 64.5v1026h-215v-1010zM238 1704l110 178l266 -235l-71 -105z" />
    <glyph glyph-name="Uacute" unicode="&#xda;" horiz-adv-x="827" 
d="M70 465q0 -63 1 -96.5t7.5 -93.5t18.5 -94.5t37 -78.5t60.5 -67.5t91 -40.5t126.5 -17q72 0 128 17.5t92 41.5t61.5 69t37.5 79.5t18.5 95t7.5 94t1 95.5v1006h-215v-1026q0 -44 -0.5 -65.5t-2.5 -56.5t-7 -52.5t-14 -40.5t-22.5 -33.5t-33.5 -18.5t-47 -8q-28 0 -48.5 8
t-34.5 18.5t-23.5 34t-14.5 41t-7 52.5t-2.5 56.5t-0.5 64.5v1026h-215v-1010zM213 1647l266 235l111 -178l-305 -162z" />
    <glyph glyph-name="Ucircumflex" unicode="&#xdb;" horiz-adv-x="827" 
d="M70 465q0 -63 1 -96.5t7.5 -93.5t18.5 -94.5t37 -78.5t60.5 -67.5t91 -40.5t126.5 -17q72 0 128 17.5t92 41.5t61.5 69t37.5 79.5t18.5 95t7.5 94t1 95.5v1006h-215v-1026q0 -44 -0.5 -65.5t-2.5 -56.5t-7 -52.5t-14 -40.5t-22.5 -33.5t-33.5 -18.5t-47 -8q-28 0 -48.5 8
t-34.5 18.5t-23.5 34t-14.5 41t-7 52.5t-2.5 56.5t-0.5 64.5v1026h-215v-1010zM162 1647l252 215l252 -215l-74 -105l-178 96l-178 -96z" />
    <glyph glyph-name="Udieresis" unicode="&#xdc;" horiz-adv-x="827" 
d="M70 465q0 -63 1 -96.5t7.5 -93.5t18.5 -94.5t37 -78.5t60.5 -67.5t91 -40.5t126.5 -17q72 0 128 17.5t92 41.5t61.5 69t37.5 79.5t18.5 95t7.5 94t1 95.5v1006h-215v-1026q0 -44 -0.5 -65.5t-2.5 -56.5t-7 -52.5t-14 -40.5t-22.5 -33.5t-33.5 -18.5t-47 -8q-28 0 -48.5 8
t-34.5 18.5t-23.5 34t-14.5 41t-7 52.5t-2.5 56.5t-0.5 64.5v1026h-215v-1010zM115 1712q0 50 34.5 85.5t86.5 35.5t86 -35.5t34 -85.5q0 -55 -33.5 -90t-86.5 -35t-87 35t-34 90zM477 1712q0 50 34.5 85.5t86.5 35.5t86.5 -35.5t34.5 -85.5q0 -55 -34 -90t-87 -35t-87 35
t-34 90z" />
    <glyph glyph-name="Yacute" unicode="&#xdd;" horiz-adv-x="821" 
d="M16 1475h224l178 -590l178 590h209l-293 -859v-616h-203v616zM217 1647l266 235l111 -178l-305 -162z" />
    <glyph glyph-name="Thorn" unicode="&#xde;" horiz-adv-x="790" 
d="M76 0v1475h203v-252h63q62 0 108 -3.5t90.5 -13t75 -26t57.5 -43t42.5 -64t24 -88.5t8.5 -117v-194q0 -119 -22.5 -193.5t-74.5 -115t-119.5 -54.5t-175.5 -14h-77v-297h-203zM279 492h83q95 0 135 37.5t40 132.5v172q0 62 -9.5 100t-33 58.5t-54.5 27t-82 6.5h-79v-534z
" />
    <glyph glyph-name="germandbls" unicode="&#xdf;" horiz-adv-x="776" 
d="M70 0v1098q0 87 12.5 153.5t44.5 126.5t95 92.5t155 32.5q62 0 112.5 -16t93 -51.5t66 -100.5t23.5 -155q0 -77 -16 -137.5t-39 -97t-46 -64.5t-39 -55t-16 -54q0 -34 24.5 -62.5t59 -57t69 -66t59 -107.5t24.5 -164q0 -81 -18 -142t-46 -95.5t-68 -55.5t-76 -27.5
t-79 -6.5q-76 0 -121 18v162q37 -14 80 -14q62 0 97.5 32.5t35.5 112.5q0 66 -22.5 113.5t-54.5 77t-63.5 58.5t-54 74t-22.5 107q0 55 14 97.5t34 73t40.5 63t34.5 85.5t14 123q0 84 -23 119t-77 35q-37 0 -60 -15t-34.5 -48.5t-15 -73t-3.5 -103.5v-1085h-194z" />
    <glyph glyph-name="agrave" unicode="&#xe0;" horiz-adv-x="684" 
d="M51 252v86q0 156 57 230.5t193 74.5q33 0 62.5 -4t42.5 -8l14 -4v102q0 83 -22.5 108t-96.5 25q-68 0 -166 -41l-67 154q112 72 270 72q53 0 90 -5.5t74.5 -24t60.5 -50.5t37 -88t14 -134v-745h-145l-20 92q-85 -110 -195 -110q-107 0 -155 59t-48 211zM201 1280l110 178
l267 -235l-72 -105zM240 281q0 -70 17 -93.5t60 -23.5q25 0 53.5 16t49.5 45v250q-29 17 -64 17q-65 0 -90.5 -40t-25.5 -135v-36z" />
    <glyph glyph-name="aacute" unicode="&#xe1;" horiz-adv-x="684" 
d="M51 252v86q0 156 57 230.5t193 74.5q33 0 62.5 -4t42.5 -8l14 -4v102q0 83 -22.5 108t-96.5 25q-68 0 -166 -41l-67 154q112 72 270 72q53 0 90 -5.5t74.5 -24t60.5 -50.5t37 -88t14 -134v-745h-145l-20 92q-85 -110 -195 -110q-107 0 -155 59t-48 211zM172 1223l266 235
l111 -178l-305 -162zM240 281q0 -70 17 -93.5t60 -23.5q25 0 53.5 16t49.5 45v250q-29 17 -64 17q-65 0 -90.5 -40t-25.5 -135v-36z" />
    <glyph glyph-name="acircumflex" unicode="&#xe2;" horiz-adv-x="684" 
d="M51 252v86q0 156 57 230.5t193 74.5q33 0 62.5 -4t42.5 -8l14 -4v102q0 83 -22.5 108t-96.5 25q-68 0 -166 -41l-67 154q112 72 270 72q53 0 90 -5.5t74.5 -24t60.5 -50.5t37 -88t14 -134v-745h-145l-20 92q-85 -110 -195 -110q-107 0 -155 59t-48 211zM96 1223l252 215
l252 -215l-74 -105l-178 96l-178 -96zM240 281q0 -70 17 -93.5t60 -23.5q25 0 53.5 16t49.5 45v250q-29 17 -64 17q-65 0 -90.5 -40t-25.5 -135v-36z" />
    <glyph glyph-name="atilde" unicode="&#xe3;" horiz-adv-x="684" 
d="M51 252v86q0 156 57 230.5t193 74.5q33 0 62.5 -4t42.5 -8l14 -4v102q0 83 -22.5 108t-96.5 25q-68 0 -166 -41l-67 154q112 72 270 72q53 0 90 -5.5t74.5 -24t60.5 -50.5t37 -88t14 -134v-745h-145l-20 92q-85 -110 -195 -110q-107 0 -155 59t-48 211zM78 1247
q36 72 84 105.5t96 33.5q45 0 100 -18t74 -18q53 0 88 51l82 -84q-33 -68 -79.5 -105.5t-96.5 -37.5q-43 0 -99.5 20t-74.5 20q-54 0 -88 -51zM240 281q0 -70 17 -93.5t60 -23.5q25 0 53.5 16t49.5 45v250q-29 17 -64 17q-65 0 -90.5 -40t-25.5 -135v-36z" />
    <glyph glyph-name="adieresis" unicode="&#xe4;" horiz-adv-x="684" 
d="M51 252v86q0 156 57 230.5t193 74.5q33 0 62.5 -4t42.5 -8l14 -4v102q0 83 -22.5 108t-96.5 25q-68 0 -166 -41l-67 154q112 72 270 72q53 0 90 -5.5t74.5 -24t60.5 -50.5t37 -88t14 -134v-745h-145l-20 92q-85 -110 -195 -110q-107 0 -155 59t-48 211zM84 1264
q0 52 32.5 85t82.5 33q47 0 79.5 -33t32.5 -79q0 -50 -32 -82.5t-80 -32.5q-51 0 -83 30.5t-32 78.5zM240 281q0 -70 17 -93.5t60 -23.5q25 0 53.5 16t49.5 45v250q-29 17 -64 17q-65 0 -90.5 -40t-25.5 -135v-36zM385 1264q0 52 32.5 85t82.5 33q47 0 79.5 -33t32.5 -79
q0 -50 -32 -82.5t-80 -32.5q-51 0 -83 30.5t-32 78.5z" />
    <glyph glyph-name="aring" unicode="&#xe5;" horiz-adv-x="684" 
d="M51 252v86q0 156 57 230.5t193 74.5q33 0 62.5 -4t42.5 -8l14 -4v102q0 83 -22.5 108t-96.5 25q-68 0 -166 -41l-67 154q112 72 270 72q53 0 90 -5.5t74.5 -24t60.5 -50.5t37 -88t14 -134v-745h-145l-20 92q-85 -110 -195 -110q-107 0 -155 59t-48 211zM135 1311
q0 94 59 154.5t148 60.5q87 0 146 -60t59 -145q0 -95 -57.5 -154t-147.5 -59q-91 0 -149 57t-58 146zM240 281q0 -70 17 -93.5t60 -23.5q25 0 53.5 16t49.5 45v250q-29 17 -64 17q-65 0 -90.5 -40t-25.5 -135v-36zM258 1317q0 -49 23 -77t63 -28q38 0 62 29t24 80
q0 44 -25 72t-61 28q-38 0 -62 -28.5t-24 -75.5z" />
    <glyph glyph-name="ae" unicode="&#xe6;" horiz-adv-x="1069" 
d="M51 252v86q0 156 57 230.5t193 74.5q33 0 62.5 -4t42.5 -8l14 -4v102q0 83 -22.5 108t-96.5 25q-68 0 -166 -41l-67 154q112 72 270 72q81 0 117 -16t65 -52q26 31 78 49.5t113 18.5q46 0 84 -8t66 -20.5t50 -35t36.5 -44t25 -55t16 -60.5t8.5 -68t3.5 -70t0.5 -74v-141
h-383v-68q0 -147 26.5 -197t115.5 -50q82 0 131 65l121 -121q-40 -56 -102.5 -90.5t-172.5 -34.5q-150 0 -229 99q-51 -42 -113 -70.5t-121 -28.5q-121 0 -172 61.5t-51 215.5zM240 281q0 -72 19 -98.5t69 -26.5q56 0 118 41q-22 75 -22 274q-5 5 -25 13t-43 8
q-65 0 -90.5 -40t-25.5 -135v-36zM621 629h182q-1 58 -1.5 86t-3.5 62.5t-8.5 47.5t-16 27.5t-25.5 18t-37 3.5q-61 0 -75.5 -47t-14.5 -198z" />
    <glyph glyph-name="ccedilla" unicode="&#xe7;" horiz-adv-x="653" 
d="M57 334v342q0 70 6.5 121t25.5 100.5t52 80.5t88.5 50t132.5 19q175 0 250 -132l-141 -116q-41 67 -104 67q-29 0 -49 -10.5t-31.5 -27t-18 -45t-8.5 -57t-2 -71.5v-245q0 -107 11.5 -160.5t37 -73.5t76.5 -20q62 0 111 65l122 -123q-76 -111 -217 -123l-14 -59
q26 0 46.5 -5t41.5 -18t33 -42t12 -72q0 -92 -49.5 -130t-124.5 -38q-83 0 -131 29l29 88q45 -15 65 -15q19 0 31.5 2.5t24.5 17.5t12 42q0 61 -64 61q-37 0 -61 -8l35 152q-121 17 -174.5 103.5t-53.5 250.5z" />
    <glyph glyph-name="egrave" unicode="&#xe8;" horiz-adv-x="706" 
d="M57 354v332q0 187 68.5 274t222.5 87q46 0 84 -8t66 -20.5t50 -35t37 -44t25 -54.5t16 -60.5t9 -68t3.5 -70.5t0.5 -74v-141h-383v-68q0 -147 26 -197t115 -50q82 0 131 65l121 -121q-90 -127 -280 -127q-174 0 -243 93t-69 288zM166 1280l110 178l267 -235l-72 -105z
M258 629h182q-1 58 -1.5 86t-3.5 62.5t-8.5 47.5t-16 27.5t-25.5 18t-37 3.5q-61 0 -75.5 -47t-14.5 -198z" />
    <glyph glyph-name="eacute" unicode="&#xe9;" horiz-adv-x="706" 
d="M57 354v332q0 187 68.5 274t222.5 87q46 0 84 -8t66 -20.5t50 -35t37 -44t25 -54.5t16 -60.5t9 -68t3.5 -70.5t0.5 -74v-141h-383v-68q0 -147 26 -197t115 -50q82 0 131 65l121 -121q-90 -127 -280 -127q-174 0 -243 93t-69 288zM166 1223l266 235l111 -178l-305 -162z
M258 629h182q-1 58 -1.5 86t-3.5 62.5t-8.5 47.5t-16 27.5t-25.5 18t-37 3.5q-61 0 -75.5 -47t-14.5 -198z" />
    <glyph glyph-name="ecircumflex" unicode="&#xea;" horiz-adv-x="706" 
d="M57 354v332q0 187 68.5 274t222.5 87q46 0 84 -8t66 -20.5t50 -35t37 -44t25 -54.5t16 -60.5t9 -68t3.5 -70.5t0.5 -74v-141h-383v-68q0 -147 26 -197t115 -50q82 0 131 65l121 -121q-90 -127 -280 -127q-174 0 -243 93t-69 288zM98 1223l252 215l252 -215l-74 -105
l-178 96l-178 -96zM258 629h182q-1 58 -1.5 86t-3.5 62.5t-8.5 47.5t-16 27.5t-25.5 18t-37 3.5q-61 0 -75.5 -47t-14.5 -198z" />
    <glyph glyph-name="edieresis" unicode="&#xeb;" horiz-adv-x="706" 
d="M57 354v332q0 187 68.5 274t222.5 87q46 0 84 -8t66 -20.5t50 -35t37 -44t25 -54.5t16 -60.5t9 -68t3.5 -70.5t0.5 -74v-141h-383v-68q0 -147 26 -197t115 -50q82 0 131 65l121 -121q-90 -127 -280 -127q-174 0 -243 93t-69 288zM86 1264q0 52 32.5 85t82.5 33
q47 0 79.5 -33t32.5 -79q0 -50 -32 -82.5t-80 -32.5q-51 0 -83 30.5t-32 78.5zM258 629h182q-1 58 -1.5 86t-3.5 62.5t-8.5 47.5t-16 27.5t-25.5 18t-37 3.5q-61 0 -75.5 -47t-14.5 -198zM387 1264q0 52 32.5 85t82.5 33q47 0 79.5 -33t32.5 -79q0 -50 -32 -82.5t-80 -32.5
q-51 0 -83 30.5t-32 78.5z" />
    <glyph glyph-name="igrave" unicode="&#xec;" horiz-adv-x="342" 
d="M-16 1280l110 178l266 -235l-71 -105zM74 0v1022h194v-1022h-194z" />
    <glyph glyph-name="iacute" unicode="&#xed;" horiz-adv-x="342" 
d="M-16 1223l266 235l110 -178l-305 -162zM74 0v1022h194v-1022h-194z" />
    <glyph glyph-name="icircumflex" unicode="&#xee;" horiz-adv-x="342" 
d="M-82 1223l252 215l252 -215l-74 -105l-178 96l-178 -96zM74 0v1022h194v-1022h-194z" />
    <glyph glyph-name="idieresis" unicode="&#xef;" horiz-adv-x="342" 
d="M-92 1264q0 52 32.5 85t82.5 33q47 0 79.5 -33t32.5 -79q0 -50 -32 -82.5t-80 -32.5q-51 0 -83 30.5t-32 78.5zM74 0v1022h194v-1022h-194zM209 1264q0 52 32.5 85t82.5 33q47 0 79.5 -33t32.5 -79q0 -50 -32 -82.5t-80 -32.5q-51 0 -83 30.5t-32 78.5z" />
    <glyph glyph-name="eth" unicode="&#xf0;" horiz-adv-x="702" 
d="M57 334v381q0 173 52.5 252.5t166.5 79.5q55 0 97.5 -22t64.5 -54q0 174 -10 209l-109 -60l-67 127l108 60q-55 36 -231 43l21 157q137 -2 221.5 -21.5t163.5 -72.5l106 62l72 -129l-105 -60q31 -90 31 -498v-454q0 -189 -69 -275t-222 -86q-154 0 -222.5 87t-68.5 274z
M258 315q0 -86 18.5 -125.5t71.5 -39.5q25 0 41.5 8t26.5 20t14.5 35.5t6 45t1.5 56.5v496q-42 57 -96 57q-84 0 -84 -116v-437z" />
    <glyph glyph-name="ntilde" unicode="&#xf1;" horiz-adv-x="681" 
d="M70 0v1022h137l20 -100q20 25 36.5 42t43.5 38.5t60.5 33t70.5 11.5q31 0 55 -5t42 -16.5t31 -24.5t21.5 -35t13.5 -42t7.5 -51.5t3 -57t0.5 -65.5v-750h-194v713q0 78 -13.5 101.5t-50.5 23.5q-43 0 -90 -41v-797h-194zM96 1247q36 72 84 105.5t96 33.5q45 0 100.5 -18
t74.5 -18q53 0 88 51l82 -84q-33 -68 -80 -105.5t-97 -37.5q-43 0 -99.5 20t-74.5 20q-54 0 -88 -51z" />
    <glyph glyph-name="ograve" unicode="&#xf2;" horiz-adv-x="696" 
d="M57 334v352q0 187 68.5 274t222.5 87q153 0 222 -86t69 -275v-352q0 -189 -69 -275t-222 -86q-154 0 -222.5 87t-68.5 274zM160 1280l110 178l267 -235l-72 -105zM258 315q0 -86 18.5 -125.5t71.5 -39.5q25 0 41.5 8t26.5 20t14.5 35.5t6 45t1.5 56.5v394q0 35 -1.5 56.5
t-6 45t-14.5 35.5t-26.5 20t-41.5 8q-53 0 -71.5 -39.5t-18.5 -125.5v-394z" />
    <glyph glyph-name="oacute" unicode="&#xf3;" horiz-adv-x="696" 
d="M57 334v352q0 187 68.5 274t222.5 87q153 0 222 -86t69 -275v-352q0 -189 -69 -275t-222 -86q-154 0 -222.5 87t-68.5 274zM160 1223l266 235l111 -178l-306 -162zM258 315q0 -86 18.5 -125.5t71.5 -39.5q25 0 41.5 8t26.5 20t14.5 35.5t6 45t1.5 56.5v394
q0 35 -1.5 56.5t-6 45t-14.5 35.5t-26.5 20t-41.5 8q-53 0 -71.5 -39.5t-18.5 -125.5v-394z" />
    <glyph glyph-name="ocircumflex" unicode="&#xf4;" horiz-adv-x="696" 
d="M57 334v352q0 187 68.5 274t222.5 87q153 0 222 -86t69 -275v-352q0 -189 -69 -275t-222 -86q-154 0 -222.5 87t-68.5 274zM96 1223l252 215l252 -215l-74 -105l-178 96l-178 -96zM258 315q0 -86 18.5 -125.5t71.5 -39.5q25 0 41.5 8t26.5 20t14.5 35.5t6 45t1.5 56.5
v394q0 35 -1.5 56.5t-6 45t-14.5 35.5t-26.5 20t-41.5 8q-53 0 -71.5 -39.5t-18.5 -125.5v-394z" />
    <glyph glyph-name="otilde" unicode="&#xf5;" horiz-adv-x="696" 
d="M57 334v352q0 187 68.5 274t222.5 87q153 0 222 -86t69 -275v-352q0 -189 -69 -275t-222 -86q-154 0 -222.5 87t-68.5 274zM86 1247q36 72 84 105.5t96 33.5q45 0 100 -18t74 -18q53 0 88 51l82 -84q-33 -68 -79.5 -105.5t-96.5 -37.5q-43 0 -99.5 20t-74.5 20
q-54 0 -88 -51zM258 315q0 -86 18.5 -125.5t71.5 -39.5q25 0 41.5 8t26.5 20t14.5 35.5t6 45t1.5 56.5v394q0 35 -1.5 56.5t-6 45t-14.5 35.5t-26.5 20t-41.5 8q-53 0 -71.5 -39.5t-18.5 -125.5v-394z" />
    <glyph glyph-name="odieresis" unicode="&#xf6;" horiz-adv-x="696" 
d="M57 334v352q0 187 68.5 274t222.5 87q153 0 222 -86t69 -275v-352q0 -189 -69 -275t-222 -86q-154 0 -222.5 87t-68.5 274zM84 1264q0 52 32.5 85t82.5 33q47 0 79.5 -33t32.5 -79q0 -50 -32 -82.5t-80 -32.5q-51 0 -83 30.5t-32 78.5zM258 315q0 -86 18.5 -125.5
t71.5 -39.5q25 0 41.5 8t26.5 20t14.5 35.5t6 45t1.5 56.5v394q0 35 -1.5 56.5t-6 45t-14.5 35.5t-26.5 20t-41.5 8q-53 0 -71.5 -39.5t-18.5 -125.5v-394zM385 1264q0 52 32.5 85t82.5 33q47 0 79.5 -33t32.5 -79q0 -50 -32 -82.5t-80 -32.5q-51 0 -83 30.5t-32 78.5z" />
    <glyph glyph-name="divide" unicode="&#xf7;" horiz-adv-x="757" 
d="M33 621v190h692v-190h-692zM238 322q0 64 39 104.5t98 40.5t98 -40t39 -97q0 -61 -38.5 -100.5t-98.5 -39.5t-98.5 37.5t-38.5 94.5zM238 1094q0 64 39 104.5t98 40.5t98 -40t39 -97q0 -61 -38.5 -100t-98.5 -39t-98.5 37t-38.5 94z" />
    <glyph glyph-name="oslash" unicode="&#xf8;" horiz-adv-x="696" 
d="M16 16l66 123q-25 83 -25 195v352q0 187 68.5 274t222.5 87q117 0 184 -52l48 88l100 -57l-72 -133q31 -82 31 -207v-352q0 -189 -69 -275t-222 -86q-120 0 -194 58l-35 -68zM258 453l174 350q-8 36 -27 53.5t-57 17.5q-53 0 -71.5 -39.5t-18.5 -125.5v-256zM262 236
q6 -43 26 -64.5t60 -21.5q25 0 41.5 8t26.5 20t14.5 35.5t6 45t1.5 56.5v277z" />
    <glyph glyph-name="ugrave" unicode="&#xf9;" horiz-adv-x="681" 
d="M70 236v786h194v-713q0 -79 13.5 -102t52.5 -23q43 0 88 41v797h194v-1022h-137l-20 92q-26 -33 -48.5 -54.5t-62 -42t-82.5 -20.5q-52 0 -89 15.5t-56.5 38t-30.5 60t-13.5 69t-2.5 78.5zM154 1280l110 178l266 -235l-71 -105z" />
    <glyph glyph-name="uacute" unicode="&#xfa;" horiz-adv-x="681" 
d="M70 236v786h194v-713q0 -79 13.5 -102t52.5 -23q43 0 88 41v797h194v-1022h-137l-20 92q-26 -33 -48.5 -54.5t-62 -42t-82.5 -20.5q-52 0 -89 15.5t-56.5 38t-30.5 60t-13.5 69t-2.5 78.5zM154 1223l266 235l110 -178l-305 -162z" />
    <glyph glyph-name="ucircumflex" unicode="&#xfb;" horiz-adv-x="681" 
d="M70 236v786h194v-713q0 -79 13.5 -102t52.5 -23q43 0 88 41v797h194v-1022h-137l-20 92q-26 -33 -48.5 -54.5t-62 -42t-82.5 -20.5q-52 0 -89 15.5t-56.5 38t-30.5 60t-13.5 69t-2.5 78.5zM90 1223l252 215l252 -215l-74 -105l-178 96l-178 -96z" />
    <glyph glyph-name="udieresis" unicode="&#xfc;" horiz-adv-x="681" 
d="M70 236v786h194v-713q0 -79 13.5 -102t52.5 -23q43 0 88 41v797h194v-1022h-137l-20 92q-26 -33 -48.5 -54.5t-62 -42t-82.5 -20.5q-52 0 -89 15.5t-56.5 38t-30.5 60t-13.5 69t-2.5 78.5zM78 1264q0 52 32.5 85t82.5 33q47 0 79.5 -33t32.5 -79q0 -50 -32 -82.5
t-80 -32.5q-51 0 -83 30.5t-32 78.5zM379 1264q0 52 32.5 85t82.5 33q47 0 79.5 -33t32.5 -79q0 -50 -32 -82.5t-80 -32.5q-51 0 -83 30.5t-32 78.5z" />
    <glyph glyph-name="yacute" unicode="&#xfd;" horiz-adv-x="673" 
d="M12 1022h205l127 -674l123 674h195l-234 -983q-20 -83 -36 -136t-39 -103.5t-50.5 -78t-66.5 -43.5t-91 -16q-66 0 -98 8v162q23 -2 47 -2q71 0 97.5 42.5t52.5 178.5zM147 1223l267 235l110 -178l-305 -162z" />
    <glyph glyph-name="thorn" unicode="&#xfe;" horiz-adv-x="700" 
d="M70 -338v1813h194v-512q67 84 170 84q106 0 157.5 -63.5t51.5 -231.5v-449q0 -75 -8 -126t-30.5 -96.5t-67.5 -68t-113 -22.5q-90 0 -160 73v-401h-194zM264 236q21 -29 49.5 -45.5t53.5 -16.5q43 0 60 23.5t17 93.5v461q0 116 -84 116q-54 0 -96 -57v-575z" />
    <glyph glyph-name="ydieresis" unicode="&#xff;" horiz-adv-x="673" 
d="M12 1022h205l127 -674l123 674h195l-234 -983q-20 -83 -36 -136t-39 -103.5t-50.5 -78t-66.5 -43.5t-91 -16q-66 0 -98 8v162q23 -2 47 -2q71 0 97.5 42.5t52.5 178.5zM74 1264q0 52 32 85t82 33q47 0 80 -33t33 -79q0 -50 -32.5 -82.5t-80.5 -32.5q-51 0 -82.5 30.5
t-31.5 78.5zM375 1264q0 52 32 85t82 33q47 0 80 -33t33 -79q0 -50 -32.5 -82.5t-80.5 -32.5q-51 0 -82.5 30.5t-31.5 78.5z" />
    <glyph glyph-name="Amacron" unicode="&#x100;" horiz-adv-x="831" 
d="M23 0l256 1475h256l274 -1475h-219l-53 346h-254l-52 -346h-208zM152 1653v182h503v-182h-503zM311 553h191l-99 614z" />
    <glyph glyph-name="amacron" unicode="&#x101;" horiz-adv-x="684" 
d="M51 252v86q0 156 57 230.5t193 74.5q33 0 62.5 -4t42.5 -8l14 -4v102q0 83 -22.5 108t-96.5 25q-68 0 -166 -41l-67 154q112 72 270 72q53 0 90 -5.5t74.5 -24t60.5 -50.5t37 -88t14 -134v-745h-145l-20 92q-85 -110 -195 -110q-107 0 -155 59t-48 211zM102 1178v182h504
v-182h-504zM240 281q0 -70 17 -93.5t60 -23.5q25 0 53.5 16t49.5 45v250q-29 17 -64 17q-65 0 -90.5 -40t-25.5 -135v-36z" />
    <glyph glyph-name="Abreve" unicode="&#x102;" horiz-adv-x="831" 
d="M23 0l256 1475h256l274 -1475h-219l-53 346h-254l-52 -346h-208zM162 1860h131q2 -28 5.5 -44.5t14 -35.5t33 -28t57.5 -9q28 0 48.5 7t32 17t18 27t9 31t3.5 35h131q0 -127 -60.5 -198t-181.5 -71t-181 71t-60 198zM311 553h191l-99 614z" />
    <glyph glyph-name="abreve" unicode="&#x103;" horiz-adv-x="684" 
d="M51 252v86q0 156 57 230.5t193 74.5q33 0 62.5 -4t42.5 -8l14 -4v102q0 83 -22.5 108t-96.5 25q-68 0 -166 -41l-67 154q112 72 270 72q53 0 90 -5.5t74.5 -24t60.5 -50.5t37 -88t14 -134v-745h-145l-20 92q-85 -110 -195 -110q-107 0 -155 59t-48 211zM100 1393h131
q1 -21 3.5 -35t9 -31t18 -27t32 -17t48.5 -7t48.5 7t32 17t18 27t9 31t3.5 35h131q0 -127 -60.5 -198t-181.5 -71t-181.5 71t-60.5 198zM240 281q0 -70 17 -93.5t60 -23.5q25 0 53.5 16t49.5 45v250q-29 17 -64 17q-65 0 -90.5 -40t-25.5 -135v-36z" />
    <glyph glyph-name="Aogonek" unicode="&#x104;" horiz-adv-x="831" 
d="M23 0l256 1475h256l274 -1475q-82 -37 -126 -86t-44 -104q0 -72 72 -72q17 0 36 3.5t29 6.5l10 4l39 -131q-54 -27 -131 -27q-99 0 -155 51.5t-56 147.5q0 76 32 127.5t75 79.5l-53 346h-254l-52 -346h-208zM311 553h191l-99 614z" />
    <glyph glyph-name="aogonek" unicode="&#x105;" horiz-adv-x="698" 
d="M51 252v86q0 156 57 230.5t193 74.5q33 0 62.5 -4t42.5 -8l14 -4v102q0 83 -22.5 108t-96.5 25q-68 0 -166 -41l-67 154q112 72 270 72q53 0 90 -5.5t74.5 -24t60.5 -50.5t37 -88t14 -134v-745q-71 -34 -110 -79.5t-39 -94.5q0 -62 63 -62q16 0 33 3t26 7l9 3l33 -115
q-51 -22 -115 -22q-86 0 -135 45t-49 127q0 45 14 81t36.5 57t44 33.5t44.5 18.5l-20 90q-85 -110 -195 -110q-107 0 -155 59t-48 211zM240 281q0 -70 17 -93.5t60 -23.5q25 0 53.5 16t49.5 45v250q-29 17 -64 17q-65 0 -90.5 -40t-25.5 -135v-36z" />
    <glyph glyph-name="Cacute" unicode="&#x106;" horiz-adv-x="714" 
d="M70 424v629q0 82 7 143t28 122t57 99t98.5 62t147.5 24q110 0 175 -34t113 -99l-133 -131q-58 72 -141 72q-75 0 -106 -49t-31 -166v-709q0 -112 29 -163.5t104 -51.5q40 0 76 14.5t50 26t38 33.5l120 -152q-38 -48 -111.5 -84.5t-176.5 -36.5q-86 0 -148 22.5
t-99.5 59.5t-59.5 97t-29.5 123t-7.5 149zM209 1647l266 235l111 -178l-305 -162z" />
    <glyph glyph-name="cacute" unicode="&#x107;" horiz-adv-x="653" 
d="M57 334v342q0 70 6.5 121t25.5 100.5t52 80.5t88.5 50t132.5 19q175 0 250 -132l-141 -116q-41 67 -104 67q-29 0 -49 -10.5t-31.5 -27t-18 -45t-8.5 -57t-2 -71.5v-245q0 -107 11.5 -160.5t37 -73.5t76.5 -20q62 0 111 65l122 -123q-84 -125 -258 -125
q-162 0 -231.5 86.5t-69.5 274.5zM170 1223l266 235l111 -178l-305 -162z" />
    <glyph glyph-name="Ccircumflex" unicode="&#x108;" horiz-adv-x="714" 
d="M70 424v629q0 82 7 143t28 122t57 99t98.5 62t147.5 24q110 0 175 -34t113 -99l-133 -131q-58 72 -141 72q-75 0 -106 -49t-31 -166v-709q0 -112 29 -163.5t104 -51.5q40 0 76 14.5t50 26t38 33.5l120 -152q-38 -48 -111.5 -84.5t-176.5 -36.5q-86 0 -148 22.5
t-99.5 59.5t-59.5 97t-29.5 123t-7.5 149zM158 1647l252 215l252 -215l-74 -105l-178 96l-179 -96z" />
    <glyph glyph-name="ccircumflex" unicode="&#x109;" horiz-adv-x="653" 
d="M57 334v342q0 70 6.5 121t25.5 100.5t52 80.5t88.5 50t132.5 19q175 0 250 -132l-141 -116q-41 67 -104 67q-29 0 -49 -10.5t-31.5 -27t-18 -45t-8.5 -57t-2 -71.5v-245q0 -107 11.5 -160.5t37 -73.5t76.5 -20q62 0 111 65l122 -123q-84 -125 -258 -125
q-162 0 -231.5 86.5t-69.5 274.5zM106 1223l252 215l252 -215l-73 -105l-179 96l-178 -96z" />
    <glyph glyph-name="Cdotaccent" unicode="&#x10a;" horiz-adv-x="714" 
d="M70 424v629q0 82 7 143t28 122t57 99t98.5 62t147.5 24q110 0 175 -34t113 -99l-133 -131q-58 72 -141 72q-75 0 -106 -49t-31 -166v-709q0 -112 29 -163.5t104 -51.5q40 0 76 14.5t50 26t38 33.5l120 -152q-38 -48 -111.5 -84.5t-176.5 -36.5q-86 0 -148 22.5
t-99.5 59.5t-59.5 97t-29.5 123t-7.5 149zM289 1745q0 57 35 93t88 36q52 0 86 -35.5t34 -85.5q0 -55 -33.5 -90t-86.5 -35q-54 0 -88.5 33t-34.5 84z" />
    <glyph glyph-name="cdotaccent" unicode="&#x10b;" horiz-adv-x="653" 
d="M57 334v342q0 70 6.5 121t25.5 100.5t52 80.5t88.5 50t132.5 19q175 0 250 -132l-141 -116q-41 67 -104 67q-29 0 -49 -10.5t-31.5 -27t-18 -45t-8.5 -57t-2 -71.5v-245q0 -107 11.5 -160.5t37 -73.5t76.5 -20q62 0 111 65l122 -123q-84 -125 -258 -125
q-162 0 -231.5 86.5t-69.5 274.5zM246 1264q0 52 32 85t82 33q47 0 80 -33t33 -79q0 -50 -32.5 -82.5t-80.5 -32.5q-51 0 -82.5 30.5t-31.5 78.5z" />
    <glyph glyph-name="Ccaron" unicode="&#x10c;" horiz-adv-x="714" 
d="M70 424v629q0 82 7 143t28 122t57 99t98.5 62t147.5 24q110 0 175 -34t113 -99l-133 -131q-58 72 -141 72q-75 0 -106 -49t-31 -166v-709q0 -112 29 -163.5t104 -51.5q40 0 76 14.5t50 26t38 33.5l120 -152q-38 -48 -111.5 -84.5t-176.5 -36.5q-86 0 -148 22.5
t-99.5 59.5t-59.5 97t-29.5 123t-7.5 149zM166 1757l74 105l178 -97l178 97l74 -105l-252 -215z" />
    <glyph glyph-name="ccaron" unicode="&#x10d;" horiz-adv-x="653" 
d="M57 334v342q0 70 6.5 121t25.5 100.5t52 80.5t88.5 50t132.5 19q175 0 250 -132l-141 -116q-41 67 -104 67q-29 0 -49 -10.5t-31.5 -27t-18 -45t-8.5 -57t-2 -71.5v-245q0 -107 11.5 -160.5t37 -73.5t76.5 -20q62 0 111 65l122 -123q-84 -125 -258 -125
q-162 0 -231.5 86.5t-69.5 274.5zM86 1333l74 105l178 -97l178 97l74 -105l-252 -215z" />
    <glyph glyph-name="Dcaron" unicode="&#x10e;" horiz-adv-x="821" 
d="M76 0v1475h237q90 0 152 -6.5t113.5 -25t82.5 -48.5t52.5 -80t30 -116t8.5 -159v-596q0 -99 -8 -167t-30 -119t-52.5 -80.5t-85 -47.5t-117.5 -24t-158 -6h-225zM152 1757l73 105l178 -97l179 97l73 -105l-252 -215zM279 203h51q52 0 83.5 2.5t56.5 14.5t37 26t19.5 48
t9 69.5t1.5 101.5v575q0 65 -6 105.5t-17 67.5t-37 39.5t-56.5 17t-84.5 4.5h-57v-1071z" />
    <glyph glyph-name="dcaron" unicode="&#x10f;" horiz-adv-x="1021" 
d="M57 303v412q0 173 52.5 252.5t166.5 79.5q55 0 97.5 -22t64.5 -54v504h195v-1475h-146l-20 92q-80 -110 -201 -110q-119 0 -164 78.5t-45 242.5zM258 281q0 -69 17.5 -93t60.5 -24q25 0 53 16t49 45v586q-42 57 -96 57q-84 0 -84 -116v-471zM694 1143l94 332h234
l-178 -332h-150z" />
    <glyph glyph-name="Dcroat" unicode="&#x110;" horiz-adv-x="821" 
d="M-53 672v178h129v625h237q90 0 152 -6.5t113.5 -25t82.5 -48.5t52.5 -80t30 -116t8.5 -159v-596q0 -99 -8 -167t-30 -119t-52.5 -80.5t-85 -47.5t-117.5 -24t-158 -6h-225v672h-129zM279 203h51q52 0 83.5 2.5t56.5 14.5t37 26t19.5 48t9 69.5t1.5 101.5v575
q0 65 -6 105.5t-17 67.5t-37 39.5t-56.5 17t-84.5 4.5h-57v-424h149v-178h-149v-469z" />
    <glyph glyph-name="dcroat" unicode="&#x111;" horiz-adv-x="745" 
d="M57 303v412q0 173 52.5 252.5t166.5 79.5q55 0 97.5 -22t64.5 -54v213h-155v147h155v144h195v-144h112v-147h-112v-1184h-146l-20 92q-80 -110 -201 -110q-119 0 -164 78.5t-45 242.5zM258 281q0 -69 17.5 -93t60.5 -24q25 0 53 16t49 45v586q-42 57 -96 57
q-84 0 -84 -116v-471z" />
    <glyph glyph-name="Emacron" unicode="&#x112;" horiz-adv-x="706" 
d="M76 0v1475h573v-209h-370v-402h358v-207h-358v-446h385v-211h-588zM100 1620v182h504v-182h-504z" />
    <glyph glyph-name="emacron" unicode="&#x113;" horiz-adv-x="706" 
d="M57 354v332q0 187 68.5 274t222.5 87q46 0 84 -8t66 -20.5t50 -35t37 -44t25 -54.5t16 -60.5t9 -68t3.5 -70.5t0.5 -74v-141h-383v-68q0 -147 26 -197t115 -50q82 0 131 65l121 -121q-90 -127 -280 -127q-174 0 -243 93t-69 288zM98 1178v182h504v-182h-504zM258 629h182
q-1 58 -1.5 86t-3.5 62.5t-8.5 47.5t-16 27.5t-25.5 18t-37 3.5q-61 0 -75.5 -47t-14.5 -198z" />
    <glyph glyph-name="Ebreve" unicode="&#x114;" horiz-adv-x="706" 
d="M76 0v1475h573v-209h-370v-402h358v-207h-358v-446h385v-211h-588zM121 1829h131q2 -28 5.5 -44.5t14 -35.5t33 -28t57.5 -9q28 0 48.5 7t32 17t18 27t9 31t3.5 35h131q0 -127 -60.5 -197.5t-181.5 -70.5t-181 70.5t-60 197.5z" />
    <glyph glyph-name="ebreve" unicode="&#x115;" horiz-adv-x="706" 
d="M57 354v332q0 187 68.5 274t222.5 87q46 0 84 -8t66 -20.5t50 -35t37 -44t25 -54.5t16 -60.5t9 -68t3.5 -70.5t0.5 -74v-141h-383v-68q0 -147 26 -197t115 -50q82 0 131 65l121 -121q-90 -127 -280 -127q-174 0 -243 93t-69 288zM109 1393h131q2 -28 5.5 -44.5t14 -35.5
t33 -28t57.5 -9q28 0 48.5 7t32 17t18 27t9 31t3.5 35h131q0 -127 -60.5 -198t-181.5 -71t-181 71t-60 198zM258 629h182q-1 58 -1.5 86t-3.5 62.5t-8.5 47.5t-16 27.5t-25.5 18t-37 3.5q-61 0 -75.5 -47t-14.5 -198z" />
    <glyph glyph-name="Edotaccent" unicode="&#x116;" horiz-adv-x="706" 
d="M76 0v1475h573v-209h-370v-402h358v-207h-358v-446h385v-211h-588zM260 1745q0 57 35 93t88 36q52 0 86.5 -35.5t34.5 -85.5q0 -55 -34 -90t-87 -35q-54 0 -88.5 33t-34.5 84z" />
    <glyph glyph-name="edotaccent" unicode="&#x117;" horiz-adv-x="706" 
d="M57 354v332q0 187 68.5 274t222.5 87q46 0 84 -8t66 -20.5t50 -35t37 -44t25 -54.5t16 -60.5t9 -68t3.5 -70.5t0.5 -74v-141h-383v-68q0 -147 26 -197t115 -50q82 0 131 65l121 -121q-90 -127 -280 -127q-174 0 -243 93t-69 288zM238 1264q0 52 32 85t82 33q47 0 80 -33
t33 -79q0 -50 -32.5 -82.5t-80.5 -32.5q-51 0 -82.5 30.5t-31.5 78.5zM258 629h182q-1 58 -1.5 86t-3.5 62.5t-8.5 47.5t-16 27.5t-25.5 18t-37 3.5q-61 0 -75.5 -47t-14.5 -198z" />
    <glyph glyph-name="Eogonek" unicode="&#x118;" horiz-adv-x="722" 
d="M76 0v1475h573v-209h-370v-402h358v-207h-358v-446h385v-211q-82 -37 -126 -86t-44 -104q0 -72 71 -72q17 0 36 3.5t29 6.5l11 4l39 -131q-54 -27 -131 -27q-99 0 -155 51.5t-56 147.5q0 88 40 138t87 69h-389z" />
    <glyph glyph-name="eogonek" unicode="&#x119;" horiz-adv-x="706" 
d="M57 354v332q0 187 68.5 274t222.5 87q46 0 84 -8t66 -20.5t50 -35t37 -44t25 -54.5t16 -60.5t9 -68t3.5 -70.5t0.5 -74v-141h-383v-68q0 -147 26 -197t115 -50q82 0 131 65l121 -121q-24 -36 -62.5 -65t-73.5 -48t-67 -39.5t-51.5 -50.5t-19.5 -71q0 -62 63 -62
q16 0 33 3t26 7l9 3l33 -115q-51 -22 -115 -22q-86 0 -135 45t-49 127q0 60 25.5 104t66.5 59q-152 7 -213.5 101.5t-61.5 277.5zM258 629h182q-1 58 -1.5 86t-3.5 62.5t-8.5 47.5t-16 27.5t-25.5 18t-37 3.5q-61 0 -75.5 -47t-14.5 -198z" />
    <glyph glyph-name="Ecaron" unicode="&#x11a;" horiz-adv-x="706" 
d="M76 0v1475h573v-209h-370v-402h358v-207h-358v-446h385v-211h-588zM117 1757l73 105l179 -97l178 97l74 -105l-252 -215z" />
    <glyph glyph-name="ecaron" unicode="&#x11b;" horiz-adv-x="706" 
d="M57 354v332q0 187 68.5 274t222.5 87q46 0 84 -8t66 -20.5t50 -35t37 -44t25 -54.5t16 -60.5t9 -68t3.5 -70.5t0.5 -74v-141h-383v-68q0 -147 26 -197t115 -50q82 0 131 65l121 -121q-90 -127 -280 -127q-174 0 -243 93t-69 288zM98 1333l74 105l178 -97l178 97l74 -105
l-252 -215zM258 629h182q-1 58 -1.5 86t-3.5 62.5t-8.5 47.5t-16 27.5t-25.5 18t-37 3.5q-61 0 -75.5 -47t-14.5 -198z" />
    <glyph glyph-name="Gcircumflex" unicode="&#x11c;" horiz-adv-x="786" 
d="M70 459v2v592q0 82 7 143t28 122t57 99t98.5 62t147.5 24q110 0 175 -34t113 -99l-133 -131q-58 72 -141 72q-75 0 -106 -49t-31 -166v-652q0 -61 2 -98t9 -74.5t20.5 -57t37 -32t58.5 -12.5q69 0 112 25v462h-141v207h334v-805q-51 -31 -140 -58.5t-186 -27.5
q-59 0 -106 11t-79.5 35.5t-57 49t-38.5 67t-23 73.5t-12.5 84t-4 82t-0.5 84zM158 1647l252 215l252 -215l-74 -105l-178 96l-179 -96z" />
    <glyph glyph-name="gcircumflex" unicode="&#x11d;" horiz-adv-x="702" 
d="M57 315v400q0 173 52.5 252.5t166.5 79.5q66 0 113.5 -24t87.5 -89l17 88h139v-989q0 -92 -7.5 -151.5t-29 -109t-61 -76t-101 -40.5t-153.5 -14q-89 0 -170 22v166q112 -18 151 -18q108 0 142 41t34 174v55q-70 -80 -172 -80q-113 0 -161 74t-48 239zM84 1223l252 215
l252 -215l-74 -105l-178 96l-178 -96zM258 301q0 -69 17.5 -93t60.5 -24q56 0 102 62v565q-42 57 -96 57q-84 0 -84 -116v-451z" />
    <glyph glyph-name="Gbreve" unicode="&#x11e;" horiz-adv-x="786" 
d="M70 459v2v592q0 82 7 143t28 122t57 99t98.5 62t147.5 24q110 0 175 -34t113 -99l-133 -131q-58 72 -141 72q-75 0 -106 -49t-31 -166v-652q0 -61 2 -98t9 -74.5t20.5 -57t37 -32t58.5 -12.5q69 0 112 25v462h-141v207h334v-805q-51 -31 -140 -58.5t-186 -27.5
q-59 0 -106 11t-79.5 35.5t-57 49t-38.5 67t-23 73.5t-12.5 84t-4 82t-0.5 84zM170 1829h131q1 -21 3.5 -35t9 -31t18 -27t32 -17t48.5 -7q35 0 57.5 9t33 28t14 35.5t5.5 44.5h131q0 -127 -60 -197.5t-181 -70.5t-181.5 70.5t-60.5 197.5z" />
    <glyph glyph-name="gbreve" unicode="&#x11f;" horiz-adv-x="702" 
d="M57 315v400q0 173 52.5 252.5t166.5 79.5q66 0 113.5 -24t87.5 -89l17 88h139v-989q0 -92 -7.5 -151.5t-29 -109t-61 -76t-101 -40.5t-153.5 -14q-89 0 -170 22v166q112 -18 151 -18q108 0 142 41t34 174v55q-70 -80 -172 -80q-113 0 -161 74t-48 239zM92 1393h131
q1 -21 3.5 -35t9 -31t18 -27t32 -17t48.5 -7q35 0 57.5 9t33 28t14 35.5t5.5 44.5h131q0 -127 -60 -198t-181 -71t-181.5 71t-60.5 198zM258 301q0 -69 17.5 -93t60.5 -24q56 0 102 62v565q-42 57 -96 57q-84 0 -84 -116v-451z" />
    <glyph glyph-name="Gdotaccent" unicode="&#x120;" horiz-adv-x="786" 
d="M70 459v2v592q0 82 7 143t28 122t57 99t98.5 62t147.5 24q110 0 175 -34t113 -99l-133 -131q-58 72 -141 72q-75 0 -106 -49t-31 -166v-652q0 -61 2 -98t9 -74.5t20.5 -57t37 -32t58.5 -12.5q69 0 112 25v462h-141v207h334v-805q-51 -31 -140 -58.5t-186 -27.5
q-59 0 -106 11t-79.5 35.5t-57 49t-38.5 67t-23 73.5t-12.5 84t-4 82t-0.5 84zM297 1745q0 57 35 93t88 36q52 0 86.5 -35.5t34.5 -85.5q0 -55 -34 -90t-87 -35q-54 0 -88.5 33t-34.5 84z" />
    <glyph glyph-name="gdotaccent" unicode="&#x121;" horiz-adv-x="702" 
d="M57 315v400q0 173 52.5 252.5t166.5 79.5q66 0 113.5 -24t87.5 -89l17 88h139v-989q0 -92 -7.5 -151.5t-29 -109t-61 -76t-101 -40.5t-153.5 -14q-89 0 -170 22v166q112 -18 151 -18q108 0 142 41t34 174v55q-70 -80 -172 -80q-113 0 -161 74t-48 239zM221 1264
q0 52 32.5 85t82.5 33q47 0 80 -33t33 -79q0 -50 -32.5 -82.5t-80.5 -32.5q-51 0 -83 30.5t-32 78.5zM258 301q0 -69 17.5 -93t60.5 -24q56 0 102 62v565q-42 57 -96 57q-84 0 -84 -116v-451z" />
    <glyph glyph-name="Gcommaaccent" unicode="&#x122;" horiz-adv-x="786" 
d="M70 459v2v592q0 82 7 143t28 122t57 99t98.5 62t147.5 24q110 0 175 -34t113 -99l-133 -131q-58 72 -141 72q-75 0 -106 -49t-31 -166v-652q0 -61 2 -98t9 -74.5t20.5 -57t37 -32t58.5 -12.5q69 0 112 25v462h-141v207h334v-805q-51 -31 -140 -58.5t-186 -27.5
q-59 0 -106 11t-79.5 35.5t-57 49t-38.5 67t-23 73.5t-12.5 84t-4 82t-0.5 84zM219 -434l74 332h233l-157 -332h-150z" />
    <glyph glyph-name="gcommaaccent" unicode="&#x123;" horiz-adv-x="702" 
d="M57 315v400q0 173 52.5 252.5t166.5 79.5q66 0 113.5 -24t87.5 -89l17 88h139v-989q0 -92 -7.5 -151.5t-29 -109t-61 -76t-101 -40.5t-153.5 -14q-89 0 -170 22v166q112 -18 151 -18q108 0 142 41t34 174v55q-70 -80 -172 -80q-113 0 -161 74t-48 239zM201 1143l157 332
h150l-74 -332h-233zM258 301q0 -69 17.5 -93t60.5 -24q56 0 102 62v565q-42 57 -96 57q-84 0 -84 -116v-451z" />
    <glyph glyph-name="Hcircumflex" unicode="&#x124;" horiz-adv-x="815" 
d="M76 0v1475h203v-611h258v611h202v-1475h-202v657h-258v-657h-203zM152 1647l251 215l252 -215l-73 -105l-179 96l-178 -96z" />
    <glyph glyph-name="hcircumflex" unicode="&#x125;" horiz-adv-x="681" 
d="M-84 1675l252 215l252 -215l-74 -104l-178 96l-178 -96zM70 0v1475h194v-517q32 39 79 64t95 25q31 0 55 -5t42 -16.5t31 -24.5t21.5 -35t13.5 -42t7.5 -51.5t3 -57t0.5 -65.5v-750h-194v713q0 78 -13.5 101.5t-50.5 23.5q-43 0 -90 -41v-797h-194z" />
    <glyph glyph-name="Hbar" unicode="&#x126;" horiz-adv-x="815" 
d="M-53 1092v178h129v205h203v-205h258v205h202v-205h129v-178h-129v-1092h-202v657h-258v-657h-203v1092h-129zM279 864h258v228h-258v-228z" />
    <glyph glyph-name="hbar" unicode="&#x127;" horiz-adv-x="681" 
d="M-43 1184v147h113v144h194v-144h156v-147h-156v-226q32 39 79 64t95 25q31 0 55 -5t42 -16.5t31 -24.5t21.5 -35t13.5 -42t7.5 -51.5t3 -57t0.5 -65.5v-750h-194v713q0 78 -13.5 101.5t-50.5 23.5q-43 0 -90 -41v-797h-194v1184h-113z" />
    <glyph glyph-name="Itilde" unicode="&#x128;" horiz-adv-x="354" 
d="M-84 1675q36 73 84 106.5t96 33.5q45 0 100 -18.5t74 -18.5q53 0 88 51l82 -84q-33 -68 -79.5 -105.5t-96.5 -37.5q-43 0 -99.5 20t-74.5 20q-54 0 -88 -51zM76 0v1475h203v-1475h-203z" />
    <glyph glyph-name="itilde" unicode="&#x129;" horiz-adv-x="342" 
d="M-90 1247q36 72 84 105.5t96 33.5q45 0 100 -18t74 -18q53 0 88 51l82 -84q-33 -68 -79.5 -105.5t-96.5 -37.5q-43 0 -99.5 20t-74.5 20q-54 0 -88 -51zM74 0v1022h194v-1022h-194z" />
    <glyph glyph-name="Imacron" unicode="&#x12a;" horiz-adv-x="354" 
d="M-74 1620v182h504v-182h-504zM76 0v1475h203v-1475h-203z" />
    <glyph glyph-name="imacron" unicode="&#x12b;" horiz-adv-x="342" 
d="M-80 1147v182h504v-182h-504zM74 0v1022h194v-1022h-194z" />
    <glyph glyph-name="Ibreve" unicode="&#x12c;" horiz-adv-x="354" 
d="M-66 1829h132q2 -28 5.5 -44.5t14 -35.5t33 -28t57.5 -9q28 0 48.5 7t32 17t18 27t9 31t3.5 35h131q0 -127 -60.5 -197.5t-181.5 -70.5t-181.5 70.5t-60.5 197.5zM76 0v1475h203v-1475h-203z" />
    <glyph glyph-name="ibreve" unicode="&#x12d;" horiz-adv-x="342" 
d="M-70 1393h131q1 -21 3.5 -35t9 -31t18 -27t32 -17t48.5 -7t48.5 7t32 17t18 27t9 31t3.5 35h131q0 -127 -60.5 -198t-181.5 -71t-181.5 71t-60.5 198zM74 0v1022h194v-1022h-194z" />
    <glyph glyph-name="Iogonek" unicode="&#x12e;" horiz-adv-x="354" 
d="M-47 -207q0 46 12.5 83.5t32.5 61.5t39 38.5t39 23.5v1475h203v-1475q-82 -37 -126 -86t-44 -104q0 -72 71 -72q17 0 36 3.5t30 6.5l10 4l39 -131q-54 -27 -131 -27q-99 0 -155 51.5t-56 147.5z" />
    <glyph glyph-name="iogonek" unicode="&#x12f;" horiz-adv-x="342" 
d="M-16 -188q0 59 25 101.5t53.5 60t60.5 26.5h-49v1022h194v-1022q-71 -34 -110 -79.5t-39 -94.5q0 -62 63 -62q16 0 33 3t26 7l9 3l33 -115q-51 -22 -115 -22q-86 0 -135 45t-49 127zM57 1264q0 52 32.5 85t82.5 33q47 0 80 -33t33 -79q0 -50 -32.5 -82.5t-80.5 -32.5
q-51 0 -83 30.5t-32 78.5z" />
    <glyph glyph-name="Idotaccent" unicode="&#x130;" horiz-adv-x="354" 
d="M55 1745q0 57 35 93t88 36q52 0 86.5 -35.5t34.5 -85.5q0 -55 -34 -90t-87 -35q-54 0 -88.5 33t-34.5 84zM76 0v1475h203v-1475h-203z" />
    <glyph glyph-name="dotlessi" unicode="&#x131;" horiz-adv-x="342" 
d="M74 0v1022h194v-1022h-194z" />
    <glyph glyph-name="Jcircumflex" unicode="&#x134;" horiz-adv-x="667" 
d="M16 55l95 162q74 -51 145 -51q78 0 108.5 48t30.5 167v1094h203v-1113q0 -202 -78 -295.5t-260 -93.5q-81 0 -146 25t-98 57zM246 1647l252 215l252 -215l-74 -105l-178 96l-179 -96z" />
    <glyph glyph-name="jcircumflex" unicode="&#x135;" horiz-adv-x="342" 
d="M-104 -160q38 -6 79 -6q62 0 80.5 34.5t18.5 129.5v1024h194v-1006q0 -67 -4 -113.5t-18 -95.5t-39.5 -78t-70.5 -48t-109 -19q-72 0 -131 16v162zM-82 1223l252 215l252 -215l-74 -105l-178 96l-178 -96z" />
    <glyph glyph-name="Kcommaaccent" unicode="&#x136;" horiz-adv-x="768" 
d="M76 0v1475h203v-713l260 713h209l-273 -742l297 -733h-235l-258 686v-686h-203zM213 -434l74 332h233l-158 -332h-149z" />
    <glyph glyph-name="kcommaaccent" unicode="&#x137;" horiz-adv-x="667" 
d="M70 0v1475h194v-918l180 465h203l-194 -487l215 -535h-217l-187 489v-489h-194zM141 -434l95 332h233l-178 -332h-150z" />
    <glyph glyph-name="Lacute" unicode="&#x139;" horiz-adv-x="641" 
d="M8 1647l266 235l111 -178l-305 -162zM76 0v1475h203v-1264h350v-211h-553z" />
    <glyph glyph-name="lacute" unicode="&#x13a;" horiz-adv-x="333" 
d="M-20 1675l266 236l110 -178l-305 -162zM70 0v1475h194v-1475h-194z" />
    <glyph glyph-name="Lcommaaccent" unicode="&#x13b;" horiz-adv-x="641" 
d="M76 0v1475h203v-1264h350v-211h-553zM197 -434l73 332h234l-158 -332h-149z" />
    <glyph glyph-name="lcommaaccent" unicode="&#x13c;" horiz-adv-x="333" 
d="M-25 -434l74 332h234l-158 -332h-150zM70 0v1475h194v-1475h-194z" />
    <glyph glyph-name="Lcaron" unicode="&#x13d;" horiz-adv-x="641" 
d="M76 0v1475h203v-1264h350v-211h-553zM358 1143l74 332h234l-158 -332h-150z" />
    <glyph glyph-name="lcaron" unicode="&#x13e;" horiz-adv-x="653" 
d="M70 0v1475h194v-1475h-194zM326 1143l94 332h233l-178 -332h-149z" />
    <glyph glyph-name="Ldot" unicode="&#x13f;" horiz-adv-x="641" 
d="M76 0v1475h203v-1264h350v-211h-553zM397 758q0 57 35 93t88 36q52 0 86.5 -35.5t34.5 -85.5q0 -55 -34 -90t-87 -35q-54 0 -88.5 33t-34.5 84z" />
    <glyph glyph-name="ldot" unicode="&#x140;" horiz-adv-x="872" 
d="M70 0v1475h194v-1475h-194zM461 672q0 52 32 85.5t82 33.5q47 0 80 -33.5t33 -79.5q0 -50 -32.5 -82.5t-80.5 -32.5q-51 0 -82.5 30.5t-31.5 78.5z" />
    <glyph glyph-name="Lslash" unicode="&#x141;" horiz-adv-x="641" 
d="M-111 559l187 182v734h203v-543l114 117l117 -117l-231 -236v-485h350v-211h-553v512l-70 -72z" />
    <glyph glyph-name="lslash" unicode="&#x142;" horiz-adv-x="575" 
d="M0 496l190 225v754h195v-529l80 98l110 -98l-190 -241v-705h-195v489l-79 -92z" />
    <glyph glyph-name="Nacute" unicode="&#x143;" horiz-adv-x="815" 
d="M76 0v1475h217l272 -992v992h174v-1475h-213l-276 1008v-1008h-174zM203 1647l266 235l111 -178l-306 -162z" />
    <glyph glyph-name="nacute" unicode="&#x144;" horiz-adv-x="681" 
d="M70 0v1022h137l20 -100q20 25 36.5 42t43.5 38.5t60.5 33t70.5 11.5q31 0 55 -5t42 -16.5t31 -24.5t21.5 -35t13.5 -42t7.5 -51.5t3 -57t0.5 -65.5v-750h-194v713q0 78 -13.5 101.5t-50.5 23.5q-43 0 -90 -41v-797h-194zM172 1223l266 235l111 -178l-305 -162z" />
    <glyph glyph-name="Ncommaaccent" unicode="&#x145;" horiz-adv-x="815" 
d="M76 0v1475h217l272 -992v992h174v-1475h-213l-276 1008v-1008h-174zM219 -434l74 332h233l-157 -332h-150z" />
    <glyph glyph-name="ncommaaccent" unicode="&#x146;" horiz-adv-x="681" 
d="M70 0v1022h137l20 -100q20 25 36.5 42t43.5 38.5t60.5 33t70.5 11.5q31 0 55 -5t42 -16.5t31 -24.5t21.5 -35t13.5 -42t7.5 -51.5t3 -57t0.5 -65.5v-750h-194v713q0 78 -13.5 101.5t-50.5 23.5q-43 0 -90 -41v-797h-194zM154 -434l73 332h234l-158 -332h-149z" />
    <glyph glyph-name="Ncaron" unicode="&#x147;" horiz-adv-x="815" 
d="M76 0v1475h217l272 -992v992h174v-1475h-213l-276 1008v-1008h-174zM152 1757l73 105l178 -97l179 97l73 -105l-252 -215z" />
    <glyph glyph-name="ncaron" unicode="&#x148;" horiz-adv-x="681" 
d="M70 0v1022h137l20 -100q20 25 36.5 42t43.5 38.5t60.5 33t70.5 11.5q31 0 55 -5t42 -16.5t31 -24.5t21.5 -35t13.5 -42t7.5 -51.5t3 -57t0.5 -65.5v-750h-194v713q0 78 -13.5 101.5t-50.5 23.5q-43 0 -90 -41v-797h-194zM109 1333l73 105l178 -97l179 97l73 -105
l-252 -215z" />
    <glyph glyph-name="Eng" unicode="&#x14a;" horiz-adv-x="815" 
d="M76 0v1475h217l282 -951v951h164v-1459q0 -67 -4 -113.5t-18 -95.5t-39.5 -78t-70.5 -48t-109 -19q-60 0 -119 16v162q37 -6 80 -6q62 0 80 34.5t18 133.5l-317 1061v-1063h-164z" />
    <glyph glyph-name="eng" unicode="&#x14b;" horiz-adv-x="681" 
d="M70 0v1022h137l20 -100q20 25 36.5 42t43.5 38.5t60.5 33t70.5 11.5q31 0 55 -5t42 -16.5t31 -24.5t21.5 -35t13.5 -42t7.5 -51.5t3 -57t0.5 -65.5v-734q0 -67 -4 -113.5t-18 -95.5t-39.5 -78t-70.5 -48t-109 -19q-61 0 -101 8v166q27 -2 49 -2q62 0 80.5 34.5
t18.5 129.5v715q0 78 -13.5 101.5t-50.5 23.5q-43 0 -90 -41v-797h-194z" />
    <glyph glyph-name="Omacron" unicode="&#x14c;" horiz-adv-x="827" 
d="M70 461v555q0 63 1 96.5t7.5 93.5t18.5 94t37 78t60.5 67.5t91 40.5t126.5 17q72 0 128 -17.5t92 -41.5t61.5 -68.5t37.5 -79.5t18.5 -95t7.5 -93.5t1 -95.5v-547q0 -62 -1 -95.5t-7.5 -94t-18.5 -95t-37.5 -79.5t-61.5 -69t-92 -41.5t-128 -17.5q-71 0 -126.5 17
t-91 40.5t-60.5 67.5t-37 78.5t-18.5 94.5t-7.5 93.5t-1 96.5zM152 1620v182h503v-182h-503zM285 444q0 -43 0.5 -64.5t2.5 -56.5t7 -52.5t14.5 -40.5t23.5 -33.5t34.5 -18.5t48.5 -8q27 0 47 8t33.5 18.5t22.5 33t14 40t7 52.5t2.5 56.5t0.5 65.5v592q0 44 -0.5 65.5
t-2.5 56.5t-7 52.5t-14 40.5t-22.5 33.5t-33.5 18.5t-47 8q-28 0 -48.5 -8t-34.5 -19t-23.5 -34t-14.5 -41t-7 -53.5t-2.5 -57.5t-0.5 -66v-588z" />
    <glyph glyph-name="omacron" unicode="&#x14d;" horiz-adv-x="696" 
d="M57 334v352q0 187 68.5 274t222.5 87q153 0 222 -86t69 -275v-352q0 -189 -69 -275t-222 -86q-154 0 -222.5 87t-68.5 274zM96 1178v182h504v-182h-504zM258 315q0 -86 18.5 -125.5t71.5 -39.5q25 0 41.5 8t26.5 20t14.5 35.5t6 45t1.5 56.5v394q0 35 -1.5 56.5t-6 45
t-14.5 35.5t-26.5 20t-41.5 8q-53 0 -71.5 -39.5t-18.5 -125.5v-394z" />
    <glyph glyph-name="Obreve" unicode="&#x14e;" horiz-adv-x="827" 
d="M70 461v555q0 63 1 96.5t7.5 93.5t18.5 94t37 78t60.5 67.5t91 40.5t126.5 17q72 0 128 -17.5t92 -41.5t61.5 -68.5t37.5 -79.5t18.5 -95t7.5 -93.5t1 -95.5v-547q0 -62 -1 -95.5t-7.5 -94t-18.5 -95t-37.5 -79.5t-61.5 -69t-92 -41.5t-128 -17.5q-71 0 -126.5 17
t-91 40.5t-60.5 67.5t-37 78.5t-18.5 94.5t-7.5 93.5t-1 96.5zM170 1829h131q1 -21 3.5 -35t9 -31t18 -27t32 -17t48.5 -7q35 0 57.5 9t33 28t14 35.5t5.5 44.5h131q0 -127 -60 -197.5t-181 -70.5t-181.5 70.5t-60.5 197.5zM285 444q0 -43 0.5 -64.5t2.5 -56.5t7 -52.5
t14.5 -40.5t23.5 -33.5t34.5 -18.5t48.5 -8q27 0 47 8t33.5 18.5t22.5 33t14 40t7 52.5t2.5 56.5t0.5 65.5v592q0 44 -0.5 65.5t-2.5 56.5t-7 52.5t-14 40.5t-22.5 33.5t-33.5 18.5t-47 8q-28 0 -48.5 -8t-34.5 -19t-23.5 -34t-14.5 -41t-7 -53.5t-2.5 -57.5t-0.5 -66v-588z
" />
    <glyph glyph-name="obreve" unicode="&#x14f;" horiz-adv-x="696" 
d="M57 334v352q0 187 68.5 274t222.5 87q153 0 222 -86t69 -275v-352q0 -189 -69 -275t-222 -86q-154 0 -222.5 87t-68.5 274zM106 1393h132q2 -28 5.5 -44.5t14 -35.5t33 -28t57.5 -9q28 0 48.5 7t32 17t18 27t9 31t3.5 35h131q0 -127 -60.5 -198t-181.5 -71t-181.5 71
t-60.5 198zM258 315q0 -86 18.5 -125.5t71.5 -39.5q25 0 41.5 8t26.5 20t14.5 35.5t6 45t1.5 56.5v394q0 35 -1.5 56.5t-6 45t-14.5 35.5t-26.5 20t-41.5 8q-53 0 -71.5 -39.5t-18.5 -125.5v-394z" />
    <glyph glyph-name="Ohungarumlaut" unicode="&#x150;" horiz-adv-x="827" 
d="M53 461v555q0 63 1 96.5t7.5 93.5t18.5 94t37 78t60.5 67.5t91 40.5t126.5 17q72 0 128 -17.5t92 -41.5t61.5 -68.5t37.5 -79.5t18.5 -95t7.5 -93.5t1 -95.5v-547q0 -62 -1 -95.5t-7.5 -94t-18.5 -95t-37.5 -79.5t-61.5 -69t-92 -41.5t-128 -17.5q-71 0 -126.5 17
t-91 40.5t-60.5 67.5t-37 78.5t-18.5 94.5t-7.5 93.5t-1 96.5zM76 1655l174 368l176 -108l-236 -332zM268 444q0 -43 0.5 -64.5t2.5 -56.5t7 -52.5t14.5 -40.5t23.5 -33.5t34.5 -18.5t48.5 -8q27 0 47 8t33.5 18.5t22.5 33t14 40t7 52.5t2.5 56.5t0.5 65.5v592
q0 44 -0.5 65.5t-2.5 56.5t-7 52.5t-14 40.5t-22.5 33.5t-33.5 18.5t-47 8q-28 0 -48.5 -8t-34.5 -19t-23.5 -34t-14.5 -41t-7 -53.5t-2.5 -57.5t-0.5 -66v-588zM426 1655l174 368l176 -108l-235 -332z" />
    <glyph glyph-name="ohungarumlaut" unicode="&#x151;" horiz-adv-x="696" 
d="M57 334v352q0 187 68.5 274t222.5 87q153 0 222 -86t69 -275v-352q0 -189 -69 -275t-222 -86q-154 0 -222.5 87t-68.5 274zM80 1147l174 369l176 -109l-235 -332zM258 315q0 -86 18.5 -125.5t71.5 -39.5q25 0 41.5 8t26.5 20t14.5 35.5t6 45t1.5 56.5v394q0 35 -1.5 56.5
t-6 45t-14.5 35.5t-26.5 20t-41.5 8q-53 0 -71.5 -39.5t-18.5 -125.5v-394zM430 1147l174 369l176 -109l-235 -332z" />
    <glyph glyph-name="OE" unicode="&#x152;" horiz-adv-x="1173" 
d="M70 434v596q0 99 8 167t30 119t52.5 81t84.5 48t117 24t158 6h596v-209h-371v-402h359v-207h-359v-446h385v-211h-622q-90 0 -151.5 6.5t-113.5 25t-83 48.5t-52 79.5t-29.5 115.5t-8.5 159zM285 434q0 -55 3 -91t12.5 -63t22.5 -41.5t38 -23.5t52 -11.5t72 -2.5h58v1071
h-51q-52 0 -83.5 -2.5t-56.5 -14.5t-37 -26t-19.5 -48t-9 -69.5t-1.5 -101.5v-576z" />
    <glyph glyph-name="oe" unicode="&#x153;" horiz-adv-x="1087" 
d="M57 334v352q0 187 68.5 274t222.5 87q63 0 118.5 -24.5t76.5 -64.5q56 89 186 89q46 0 84 -8t66 -20.5t50 -35t37 -44t25 -54.5t16 -60.5t9 -68t3.5 -70.5t0.5 -74v-141h-383v-121q0 -112 31.5 -153t109.5 -41q82 0 131 65l121 -121q-90 -127 -280 -127q-155 0 -207 86
q-66 -86 -195 -86q-154 0 -222.5 87t-68.5 274zM258 315q0 -86 18.5 -125.5t71.5 -39.5q25 0 41.5 8t26.5 20t14.5 35.5t6 45t1.5 56.5v394q0 35 -1.5 56.5t-6 45t-14.5 35.5t-26.5 20t-41.5 8q-53 0 -71.5 -39.5t-18.5 -125.5v-394zM639 629h182q-1 58 -1.5 86t-3.5 62.5
t-8.5 47.5t-16 27.5t-25.5 18t-37 3.5q-61 0 -75.5 -47t-14.5 -198z" />
    <glyph glyph-name="Racute" unicode="&#x154;" horiz-adv-x="768" 
d="M76 0v1475h262q45 0 78 -2t76.5 -9t74 -20t63 -37t52.5 -57t32.5 -82.5t12.5 -112.5v-123q0 -147 -41.5 -211.5t-134.5 -85.5q69 -19 95 -78.5t46 -220.5l56 -436h-207l-37 301q-9 76 -15 120t-15.5 83t-18 56.5t-24 30.5t-32.5 16t-45 3h-75v-610h-203zM172 1647
l266 235l111 -178l-305 -162zM279 803h38q67 0 106.5 10.5t61.5 39.5t28.5 68.5t6.5 110.5v96q0 92 -34 122t-142 30h-65v-477z" />
    <glyph glyph-name="racute" unicode="&#x155;" horiz-adv-x="456" 
d="M70 0v1022h137l24 -143q36 96 92 131.5t142 38.5v-215q-69 -1 -115 -26.5t-86 -82.5v-725h-194zM76 1223l266 235l111 -178l-306 -162z" />
    <glyph glyph-name="Rcommaaccent" unicode="&#x156;" horiz-adv-x="768" 
d="M76 0v1475h262q45 0 78 -2t76.5 -9t74 -20t63 -37t52.5 -57t32.5 -82.5t12.5 -112.5v-123q0 -147 -41.5 -211.5t-134.5 -85.5q69 -19 95 -78.5t46 -220.5l56 -436h-207l-37 301q-9 76 -15 120t-15.5 83t-18 56.5t-24 30.5t-32.5 16t-45 3h-75v-610h-203zM211 -434l74 332
h233l-158 -332h-149zM279 803h38q67 0 106.5 10.5t61.5 39.5t28.5 68.5t6.5 110.5v96q0 92 -34 122t-142 30h-65v-477z" />
    <glyph glyph-name="rcommaaccent" unicode="&#x157;" horiz-adv-x="456" 
d="M-31 -434l74 332h233l-157 -332h-150zM70 0v1022h137l24 -143q36 96 92 131.5t142 38.5v-215q-69 -1 -115 -26.5t-86 -82.5v-725h-194z" />
    <glyph glyph-name="Rcaron" unicode="&#x158;" horiz-adv-x="768" 
d="M76 0v1475h262q45 0 78 -2t76.5 -9t74 -20t63 -37t52.5 -57t32.5 -82.5t12.5 -112.5v-123q0 -147 -41.5 -211.5t-134.5 -85.5q69 -19 95 -78.5t46 -220.5l56 -436h-207l-37 301q-9 76 -15 120t-15.5 83t-18 56.5t-24 30.5t-32.5 16t-45 3h-75v-610h-203zM119 1757l74 105
l178 -97l178 97l74 -105l-252 -215zM279 803h38q67 0 106.5 10.5t61.5 39.5t28.5 68.5t6.5 110.5v96q0 92 -34 122t-142 30h-65v-477z" />
    <glyph glyph-name="rcaron" unicode="&#x159;" horiz-adv-x="456" 
d="M16 1333l74 105l178 -97l178 97l74 -105l-252 -215zM70 0v1022h137l24 -143q36 96 92 131.5t142 38.5v-215q-69 -1 -115 -26.5t-86 -82.5v-725h-194z" />
    <glyph glyph-name="Sacute" unicode="&#x15a;" horiz-adv-x="755" 
d="M53 113l133 145q73 -78 154 -78q67 0 108 40t41 122q0 50 -22 99t-56.5 93t-76.5 90.5t-84.5 98.5t-77 108.5t-56.5 129.5t-22 153q0 90 22 159.5t56 111t81 67.5t90.5 35.5t90.5 9.5q185 0 279 -131l-127 -139q-62 76 -137 76q-144 0 -144 -181q0 -64 41.5 -135
t101 -137.5t119 -136.5t101 -157t41.5 -175q0 -189 -96.5 -296.5t-266.5 -107.5q-61 0 -113.5 14t-87 36.5t-56 43t-36.5 42.5zM254 1647l266 235l111 -178l-305 -162z" />
    <glyph glyph-name="sacute" unicode="&#x15b;" horiz-adv-x="593" 
d="M25 82l106 133l8 -7q8 -7 10 -9t10.5 -8t13 -9t13.5 -8t17 -7.5t18 -5.5t20.5 -4t22.5 -1q55 0 82 28.5t27 91.5q0 42 -23.5 76t-58 56t-75.5 51.5t-75.5 60.5t-58 85.5t-23.5 123.5q0 141 72 229.5t205 88.5q53 0 94.5 -9.5t69 -28.5t39.5 -30.5t30 -32.5l-108 -127
l-11 11q-12 10 -15.5 12.5t-15 10t-20 10.5t-22 6t-27.5 3q-100 0 -100 -120q0 -39 17.5 -70t45.5 -53t61.5 -43t67.5 -46.5t62 -56.5t45.5 -79.5t17.5 -110.5q0 -160 -79 -238t-218 -78q-164 0 -245 105zM160 1223l266 235l111 -178l-306 -162z" />
    <glyph glyph-name="Scircumflex" unicode="&#x15c;" horiz-adv-x="755" 
d="M53 113l133 145q73 -78 154 -78q67 0 108 40t41 122q0 50 -22 99t-56.5 93t-76.5 90.5t-84.5 98.5t-77 108.5t-56.5 129.5t-22 153q0 90 22 159.5t56 111t81 67.5t90.5 35.5t90.5 9.5q185 0 279 -131l-127 -139q-62 76 -137 76q-144 0 -144 -181q0 -64 41.5 -135
t101 -137.5t119 -136.5t101 -157t41.5 -175q0 -189 -96.5 -296.5t-266.5 -107.5q-61 0 -113.5 14t-87 36.5t-56 43t-36.5 42.5zM170 1647l252 215l252 -215l-74 -105l-178 96l-178 -96z" />
    <glyph glyph-name="scircumflex" unicode="&#x15d;" horiz-adv-x="593" 
d="M25 82l106 133l8 -7q8 -7 10 -9t10.5 -8t13 -9t13.5 -8t17 -7.5t18 -5.5t20.5 -4t22.5 -1q55 0 82 28.5t27 91.5q0 42 -23.5 76t-58 56t-75.5 51.5t-75.5 60.5t-58 85.5t-23.5 123.5q0 141 72 229.5t205 88.5q53 0 94.5 -9.5t69 -28.5t39.5 -30.5t30 -32.5l-108 -127
l-11 11q-12 10 -15.5 12.5t-15 10t-20 10.5t-22 6t-27.5 3q-100 0 -100 -120q0 -39 17.5 -70t45.5 -53t61.5 -43t67.5 -46.5t62 -56.5t45.5 -79.5t17.5 -110.5q0 -160 -79 -238t-218 -78q-164 0 -245 105zM96 1223l252 215l252 -215l-74 -105l-178 96l-178 -96z" />
    <glyph glyph-name="Scedilla" unicode="&#x15e;" horiz-adv-x="755" 
d="M53 113l133 145q73 -78 154 -78q67 0 108 40t41 122q0 50 -22 99t-56.5 93t-76.5 90.5t-84.5 98.5t-77 108.5t-56.5 129.5t-22 153q0 90 22 159.5t56 111t81 67.5t90.5 35.5t90.5 9.5q185 0 279 -131l-127 -139q-62 76 -137 76q-144 0 -144 -181q0 -64 41.5 -135
t101 -137.5t119 -136.5t101 -157t41.5 -175q0 -168 -77 -272.5t-214 -124.5l-15 -64q28 0 49.5 -5t44.5 -19t35.5 -45t12.5 -78q0 -53 -16 -90.5t-44 -56.5t-59 -27.5t-68 -8.5q-86 0 -141 31l31 96q40 -16 71 -16q15 0 25 1.5t23 7.5t19.5 21t6.5 38q0 65 -69 65
q-40 0 -68 -8l37 156q-88 7 -150 47t-90 84z" />
    <glyph glyph-name="scedilla" unicode="&#x15f;" horiz-adv-x="593" 
d="M25 82l106 133l8 -7q8 -7 10 -9t10.5 -8t13 -9t13.5 -8t17 -7.5t18 -5.5t20.5 -4t22.5 -1q55 0 82 28.5t27 91.5q0 42 -23.5 76t-58 56t-75.5 51.5t-75.5 60.5t-58 85.5t-23.5 123.5q0 141 72 229.5t205 88.5q53 0 94.5 -9.5t69 -28.5t39.5 -30.5t30 -32.5l-108 -127
l-11 11q-12 10 -15.5 12.5t-15 10t-20 10.5t-22 6t-27.5 3q-100 0 -100 -120q0 -39 17.5 -70t45.5 -53t61.5 -43t67.5 -46.5t62 -56.5t45.5 -79.5t17.5 -110.5q0 -143 -62.5 -220t-174.5 -91l-17 -66q26 0 46.5 -5t41.5 -18t33 -42t12 -72q0 -92 -49.5 -130t-124.5 -38
q-83 0 -131 29l29 88q45 -15 66 -15q14 0 23.5 1.5t20.5 7t17 19t6 34.5q0 61 -63 61q-38 0 -62 -8l35 154q-128 18 -188 100z" />
    <glyph glyph-name="Scaron" unicode="&#x160;" horiz-adv-x="755" 
d="M53 113l133 145q73 -78 154 -78q67 0 108 40t41 122q0 50 -22 99t-56.5 93t-76.5 90.5t-84.5 98.5t-77 108.5t-56.5 129.5t-22 153q0 90 22 159.5t56 111t81 67.5t90.5 35.5t90.5 9.5q185 0 279 -131l-127 -139q-62 76 -137 76q-144 0 -144 -181q0 -64 41.5 -135
t101 -137.5t119 -136.5t101 -157t41.5 -175q0 -189 -96.5 -296.5t-266.5 -107.5q-61 0 -113.5 14t-87 36.5t-56 43t-36.5 42.5zM172 1757l74 105l178 -97l178 97l74 -105l-252 -215z" />
    <glyph glyph-name="scaron" unicode="&#x161;" horiz-adv-x="593" 
d="M25 82l106 133l8 -7q8 -7 10 -9t10.5 -8t13 -9t13.5 -8t17 -7.5t18 -5.5t20.5 -4t22.5 -1q55 0 82 28.5t27 91.5q0 42 -23.5 76t-58 56t-75.5 51.5t-75.5 60.5t-58 85.5t-23.5 123.5q0 141 72 229.5t205 88.5q53 0 94.5 -9.5t69 -28.5t39.5 -30.5t30 -32.5l-108 -127
l-11 11q-12 10 -15.5 12.5t-15 10t-20 10.5t-22 6t-27.5 3q-100 0 -100 -120q0 -39 17.5 -70t45.5 -53t61.5 -43t67.5 -46.5t62 -56.5t45.5 -79.5t17.5 -110.5q0 -160 -79 -238t-218 -78q-164 0 -245 105zM92 1333l74 105l178 -97l178 97l74 -105l-252 -215z" />
    <glyph glyph-name="Tcommaaccent" unicode="&#x162;" horiz-adv-x="784" 
d="M12 1272v203h760v-203h-278v-1272h-203v1272h-279zM197 -434l73 332h234l-158 -332h-149z" />
    <glyph glyph-name="tcommaaccent" unicode="&#x163;" horiz-adv-x="477" 
d="M10 840v147l115 27l20 231l172 41v-264h156v-182h-156v-596q0 -54 16 -71t66 -17q30 0 78 6v-164q-81 -25 -153 -25q-106 0 -153.5 50t-47.5 184v633h-113zM100 -434l74 332h234l-158 -332h-150z" />
    <glyph glyph-name="Tcaron" unicode="&#x164;" horiz-adv-x="784" 
d="M12 1272v203h760v-203h-278v-1272h-203v1272h-279zM139 1757l74 105l178 -97l178 97l74 -105l-252 -215z" />
    <glyph glyph-name="tcaron" unicode="&#x165;" horiz-adv-x="845" 
d="M10 840v147l115 27l20 231l172 41v-264h156v-182h-156v-596q0 -54 16 -71t66 -17q30 0 78 6v-164q-81 -25 -153 -25q-106 0 -153.5 50t-47.5 184v633h-113zM539 1143l73 332h234l-158 -332h-149z" />
    <glyph glyph-name="Tbar" unicode="&#x166;" horiz-adv-x="784" 
d="M12 1272v203h760v-203h-278v-422h196v-178h-196v-672h-203v672h-197v178h197v422h-279z" />
    <glyph glyph-name="tbar" unicode="&#x167;" horiz-adv-x="477" 
d="M10 475v182h113v183h-113v147l115 27l20 231l172 41v-264h156v-182h-156v-183h156v-182h-156v-231q0 -54 16 -71t66 -17q30 0 78 6v-164q-81 -25 -153 -25q-106 0 -153.5 50t-47.5 184v268h-113z" />
    <glyph glyph-name="Utilde" unicode="&#x168;" horiz-adv-x="827" 
d="M70 465q0 -63 1 -96.5t7.5 -93.5t18.5 -94.5t37 -78.5t60.5 -67.5t91 -40.5t126.5 -17q72 0 128 17.5t92 41.5t61.5 69t37.5 79.5t18.5 95t7.5 94t1 95.5v1006h-215v-1026q0 -44 -0.5 -65.5t-2.5 -56.5t-7 -52.5t-14 -40.5t-22.5 -33.5t-33.5 -18.5t-47 -8q-28 0 -48.5 8
t-34.5 18.5t-23.5 34t-14.5 41t-7 52.5t-2.5 56.5t-0.5 64.5v1026h-215v-1010zM141 1675q36 72 84.5 106t96.5 34q45 0 100 -18.5t74 -18.5q53 0 88 51l82 -84q-33 -68 -80 -105.5t-97 -37.5q-43 0 -99.5 20t-74.5 20q-54 0 -88 -51z" />
    <glyph glyph-name="utilde" unicode="&#x169;" horiz-adv-x="681" 
d="M70 236v786h194v-713q0 -79 13.5 -102t52.5 -23q43 0 88 41v797h194v-1022h-137l-20 92q-26 -33 -48.5 -54.5t-62 -42t-82.5 -20.5q-52 0 -89 15.5t-56.5 38t-30.5 60t-13.5 69t-2.5 78.5zM80 1247q36 72 84 105.5t96 33.5q45 0 100 -18t74 -18q53 0 88 51l82 -84
q-33 -68 -79.5 -105.5t-96.5 -37.5q-43 0 -99.5 20t-74.5 20q-54 0 -88 -51z" />
    <glyph glyph-name="Umacron" unicode="&#x16a;" horiz-adv-x="827" 
d="M70 465q0 -63 1 -96.5t7.5 -93.5t18.5 -94.5t37 -78.5t60.5 -67.5t91 -40.5t126.5 -17q72 0 128 17.5t92 41.5t61.5 69t37.5 79.5t18.5 95t7.5 94t1 95.5v1006h-215v-1026q0 -44 -0.5 -65.5t-2.5 -56.5t-7 -52.5t-14 -40.5t-22.5 -33.5t-33.5 -18.5t-47 -8q-28 0 -48.5 8
t-34.5 18.5t-23.5 34t-14.5 41t-7 52.5t-2.5 56.5t-0.5 64.5v1026h-215v-1010zM152 1620v182h503v-182h-503z" />
    <glyph glyph-name="umacron" unicode="&#x16b;" horiz-adv-x="681" 
d="M70 236v786h194v-713q0 -79 13.5 -102t52.5 -23q43 0 88 41v797h194v-1022h-137l-20 92q-26 -33 -48.5 -54.5t-62 -42t-82.5 -20.5q-52 0 -89 15.5t-56.5 38t-30.5 60t-13.5 69t-2.5 78.5zM90 1178v182h504v-182h-504z" />
    <glyph glyph-name="Ubreve" unicode="&#x16c;" horiz-adv-x="827" 
d="M70 465q0 -63 1 -96.5t7.5 -93.5t18.5 -94.5t37 -78.5t60.5 -67.5t91 -40.5t126.5 -17q72 0 128 17.5t92 41.5t61.5 69t37.5 79.5t18.5 95t7.5 94t1 95.5v1006h-215v-1026q0 -44 -0.5 -65.5t-2.5 -56.5t-7 -52.5t-14 -40.5t-22.5 -33.5t-33.5 -18.5t-47 -8q-28 0 -48.5 8
t-34.5 18.5t-23.5 34t-14.5 41t-7 52.5t-2.5 56.5t-0.5 64.5v1026h-215v-1010zM168 1829h131q1 -21 3.5 -35t9 -31t18 -27t32 -17t48.5 -7q35 0 57.5 9t33 28t14 35.5t5.5 44.5h131q0 -127 -60 -197.5t-181 -70.5t-181.5 70.5t-60.5 197.5z" />
    <glyph glyph-name="ubreve" unicode="&#x16d;" horiz-adv-x="681" 
d="M70 236v786h194v-713q0 -79 13.5 -102t52.5 -23q43 0 88 41v797h194v-1022h-137l-20 92q-26 -33 -48.5 -54.5t-62 -42t-82.5 -20.5q-52 0 -89 15.5t-56.5 38t-30.5 60t-13.5 69t-2.5 78.5zM100 1393h131q1 -21 3.5 -35t9 -31t18 -27t32 -17t48.5 -7t48.5 7t32 17t18 27
t9 31t3.5 35h131q0 -127 -60.5 -198t-181.5 -71t-181.5 71t-60.5 198z" />
    <glyph glyph-name="Uring" unicode="&#x16e;" horiz-adv-x="827" 
d="M70 465q0 -63 1 -96.5t7.5 -93.5t18.5 -94.5t37 -78.5t60.5 -67.5t91 -40.5t126.5 -17q72 0 128 17.5t92 41.5t61.5 69t37.5 79.5t18.5 95t7.5 94t1 95.5v1006h-215v-1026q0 -44 -0.5 -65.5t-2.5 -56.5t-7 -52.5t-14 -40.5t-22.5 -33.5t-33.5 -18.5t-47 -8q-28 0 -48.5 8
t-34.5 18.5t-23.5 34t-14.5 41t-7 52.5t-2.5 56.5t-0.5 64.5v1026h-215v-1010zM207 1712q0 94 59 154.5t148 60.5q87 0 145.5 -59.5t58.5 -145.5q0 -95 -57 -154t-147 -59q-91 0 -149 57t-58 146zM330 1718q0 -49 23 -76.5t63 -27.5q38 0 62 28.5t24 79.5q0 44 -25 72.5
t-61 28.5q-38 0 -62 -29t-24 -76z" />
    <glyph glyph-name="uring" unicode="&#x16f;" horiz-adv-x="681" 
d="M70 236v786h194v-713q0 -79 13.5 -102t52.5 -23q43 0 88 41v797h194v-1022h-137l-20 92q-26 -33 -48.5 -54.5t-62 -42t-82.5 -20.5q-52 0 -89 15.5t-56.5 38t-30.5 60t-13.5 69t-2.5 78.5zM137 1311q0 94 59 154.5t148 60.5q87 0 146 -60t59 -145q0 -95 -57.5 -154
t-147.5 -59q-91 0 -149 57t-58 146zM260 1317q0 -49 23 -77t63 -28q38 0 62 29t24 80q0 44 -25 72t-61 28q-38 0 -62 -28.5t-24 -75.5z" />
    <glyph glyph-name="Uhungarumlaut" unicode="&#x170;" horiz-adv-x="827" 
d="M70 465q0 -63 1 -96.5t7.5 -93.5t18.5 -94.5t37 -78.5t60.5 -67.5t91 -40.5t126.5 -17q72 0 128 17.5t92 41.5t61.5 69t37.5 79.5t18.5 95t7.5 94t1 95.5v1006h-215v-1026q0 -44 -0.5 -65.5t-2.5 -56.5t-7 -52.5t-14 -40.5t-22.5 -33.5t-33.5 -18.5t-47 -8q-28 0 -48.5 8
t-34.5 18.5t-23.5 34t-14.5 41t-7 52.5t-2.5 56.5t-0.5 64.5v1026h-215v-1010zM80 1655l174 368l176 -108l-235 -332zM430 1655l174 368l176 -108l-235 -332z" />
    <glyph glyph-name="uhungarumlaut" unicode="&#x171;" horiz-adv-x="681" 
d="M55 1147l174 369l177 -109l-236 -332zM70 236v786h194v-713q0 -79 13.5 -102t52.5 -23q43 0 88 41v797h194v-1022h-137l-20 92q-26 -33 -48.5 -54.5t-62 -42t-82.5 -20.5q-52 0 -89 15.5t-56.5 38t-30.5 60t-13.5 69t-2.5 78.5zM406 1147l174 369l176 -109l-236 -332z
" />
    <glyph glyph-name="Uogonek" unicode="&#x172;" horiz-adv-x="827" 
d="M70 465v1010h215v-1026q0 -43 0.5 -64.5t2.5 -56.5t7 -52.5t14.5 -41t23.5 -34t34.5 -18.5t48.5 -8q27 0 47 8t33.5 18.5t22.5 33.5t14 40.5t7 52.5t2.5 56.5t0.5 65.5v1026h215v-1006q0 -63 -1.5 -102t-8 -90.5t-20 -86.5t-36.5 -73t-59 -67.5t-86 -53.5
q-160 -78 -160 -186q0 -72 72 -72q17 0 36 3.5t29 6.5l11 4l38 -131q-54 -27 -131 -27q-99 0 -155 51.5t-56 147.5q0 147 117 195q-45 3 -82 15.5t-64 29.5t-48.5 44.5t-35 52t-23.5 62.5t-14.5 65.5t-7 71t-3 68.5t-0.5 68z" />
    <glyph glyph-name="uogonek" unicode="&#x173;" horiz-adv-x="681" 
d="M70 236v786h194v-713q0 -79 13.5 -102t52.5 -23q43 0 88 41v797h194v-1022q-71 -34 -110 -79.5t-39 -94.5q0 -62 63 -62q16 0 33 3t26 7l9 3l33 -115q-51 -22 -115 -22q-86 0 -135 45t-49 127q0 47 14.5 83t39 57t46.5 32.5t47 17.5l-20 90q-26 -33 -48.5 -54.5t-62 -42
t-82.5 -20.5q-52 0 -89 15.5t-56.5 38t-30.5 60t-13.5 69t-2.5 78.5z" />
    <glyph glyph-name="Wcircumflex" unicode="&#x174;" horiz-adv-x="1284" 
d="M27 1475h217l135 -996l172 996h190l172 -996l136 996h208l-235 -1475h-207l-172 1001l-172 -1001h-205zM391 1647l252 215l252 -215l-74 -105l-178 96l-178 -96z" />
    <glyph glyph-name="wcircumflex" unicode="&#x175;" horiz-adv-x="997" 
d="M16 1022h195l90 -717l123 717h158l125 -717l86 717h188l-164 -1022h-211l-106 594l-107 -594h-211zM248 1223l252 215l252 -215l-74 -105l-178 96l-178 -96z" />
    <glyph glyph-name="Ycircumflex" unicode="&#x176;" horiz-adv-x="821" 
d="M16 1475h224l178 -590l178 590h209l-293 -859v-616h-203v616zM166 1647l252 215l252 -215l-74 -105l-178 96l-178 -96z" />
    <glyph glyph-name="ycircumflex" unicode="&#x177;" horiz-adv-x="673" 
d="M12 1022h205l127 -674l123 674h195l-234 -983q-20 -83 -36 -136t-39 -103.5t-50.5 -78t-66.5 -43.5t-91 -16q-66 0 -98 8v162q23 -2 47 -2q71 0 97.5 42.5t52.5 178.5zM86 1223l252 215l252 -215l-74 -105l-178 96l-178 -96z" />
    <glyph glyph-name="Ydieresis" unicode="&#x178;" horiz-adv-x="821" 
d="M16 1475h224l178 -590l178 590h209l-293 -859v-616h-203v616zM117 1712q0 50 34.5 85.5t86.5 35.5t86 -35.5t34 -85.5q0 -55 -33.5 -90t-86.5 -35t-87 35t-34 90zM479 1712q0 50 34.5 85.5t86.5 35.5t86.5 -35.5t34.5 -85.5q0 -55 -34 -90t-87 -35t-87 35t-34 90z" />
    <glyph glyph-name="Zacute" unicode="&#x179;" horiz-adv-x="712" 
d="M23 0v197l444 1069h-385v209h608v-199l-442 -1065h424v-211h-649zM186 1647l267 235l110 -178l-305 -162z" />
    <glyph glyph-name="zacute" unicode="&#x17a;" horiz-adv-x="585" 
d="M23 0v166l319 674h-297v182h508v-164l-317 -672h327v-186h-540zM104 1223l267 235l110 -178l-305 -162z" />
    <glyph glyph-name="Zdotaccent" unicode="&#x17b;" horiz-adv-x="712" 
d="M23 0v197l444 1069h-385v209h608v-199l-442 -1065h424v-211h-649zM262 1745q0 57 35 93t88 36q52 0 86.5 -35.5t34.5 -85.5q0 -55 -34 -90t-87 -35q-54 0 -88.5 33t-34.5 84z" />
    <glyph glyph-name="zdotaccent" unicode="&#x17c;" horiz-adv-x="585" 
d="M23 0v166l319 674h-297v182h508v-164l-317 -672h327v-186h-540zM178 1264q0 52 32.5 85t82.5 33q47 0 80 -33t33 -79q0 -50 -32.5 -82.5t-80.5 -32.5q-51 0 -83 30.5t-32 78.5z" />
    <glyph glyph-name="Zcaron" unicode="&#x17d;" horiz-adv-x="712" 
d="M23 0v197l444 1069h-385v209h608v-199l-442 -1065h424v-211h-649zM139 1757l74 105l178 -97l178 97l74 -105l-252 -215z" />
    <glyph glyph-name="zcaron" unicode="&#x17e;" horiz-adv-x="585" 
d="M23 0v166l319 674h-297v182h508v-164l-317 -672h327v-186h-540zM41 1333l74 105l178 -97l178 97l74 -105l-252 -215z" />
    <glyph glyph-name="florin" unicode="&#x192;" horiz-adv-x="757" 
d="M-55 -326l41 154q35 -14 77 -14q54 0 74.5 47.5t38.5 195.5l80 676h-123l21 168h120l23 182q9 66 17.5 112t23.5 98.5t35.5 87t50 64.5t71.5 44t95 14q66 0 125 -26l-25 -183q-45 17 -84 17q-58 0 -78.5 -45.5t-35.5 -173.5l-21 -191h147l-18 -168h-149l-74 -616v-1
q-24 -197 -53 -281q-62 -174 -213 -191q-17 -2 -35 -2q-74 0 -131 32z" />
    <glyph glyph-name="Aringacute" unicode="&#x1fa;" horiz-adv-x="831" 
d="M23 0l256 1475h256l274 -1475h-219l-53 346h-254l-52 -346h-208zM199 1753q0 94 59 154.5t148 60.5q87 0 145.5 -59.5t58.5 -145.5q0 -95 -57 -154t-147 -59q-91 0 -149 57t-58 146zM203 2101l266 236l111 -178l-306 -162zM311 553h191l-99 614zM322 1759q0 -49 23 -76.5
t63 -27.5q38 0 62 28.5t24 79.5q0 44 -25 72.5t-61 28.5q-38 0 -62 -29t-24 -76z" />
    <glyph glyph-name="aringacute" unicode="&#x1fb;" horiz-adv-x="684" 
d="M51 252v86q0 156 57 230.5t193 74.5q33 0 62.5 -4t42.5 -8l14 -4v102q0 83 -22.5 108t-96.5 25q-68 0 -166 -41l-67 154q112 72 270 72q53 0 90 -5.5t74.5 -24t60.5 -50.5t37 -88t14 -134v-745h-145l-20 92q-85 -110 -195 -110q-107 0 -155 59t-48 211zM135 1311
q0 94 59 154.5t148 60.5q87 0 146 -60t59 -145q0 -95 -57.5 -154t-147.5 -59q-91 0 -149 57t-58 146zM172 1673l266 236l111 -178l-305 -162zM240 281q0 -70 17 -93.5t60 -23.5q25 0 53.5 16t49.5 45v250q-29 17 -64 17q-65 0 -90.5 -40t-25.5 -135v-36zM258 1317
q0 -49 23 -77t63 -28q38 0 62 29t24 80q0 44 -25 72t-61 28q-38 0 -62 -28.5t-24 -75.5z" />
    <glyph glyph-name="AEacute" unicode="&#x1fc;" horiz-adv-x="1177" 
d="M23 0l405 1475h692v-209h-350v-402h338v-207h-338v-446h365v-211h-568v346h-239l-88 -346h-217zM377 553h190v774zM469 1647l266 235l111 -178l-305 -162z" />
    <glyph glyph-name="aeacute" unicode="&#x1fd;" horiz-adv-x="1069" 
d="M51 252v86q0 156 57 230.5t193 74.5q33 0 62.5 -4t42.5 -8l14 -4v102q0 83 -22.5 108t-96.5 25q-68 0 -166 -41l-67 154q112 72 270 72q81 0 117 -16t65 -52q26 31 78 49.5t113 18.5q46 0 84 -8t66 -20.5t50 -35t36.5 -44t25 -55t16 -60.5t8.5 -68t3.5 -70t0.5 -74v-141
h-383v-68q0 -147 26.5 -197t115.5 -50q82 0 131 65l121 -121q-40 -56 -102.5 -90.5t-172.5 -34.5q-150 0 -229 99q-51 -42 -113 -70.5t-121 -28.5q-121 0 -172 61.5t-51 215.5zM240 281q0 -72 19 -98.5t69 -26.5q56 0 118 41q-22 75 -22 274q-5 5 -25 13t-43 8
q-65 0 -90.5 -40t-25.5 -135v-36zM332 1223l266 235l111 -178l-306 -162zM621 629h182q-1 58 -1.5 86t-3.5 62.5t-8.5 47.5t-16 27.5t-25.5 18t-37 3.5q-61 0 -75.5 -47t-14.5 -198z" />
    <glyph glyph-name="Oslashacute" unicode="&#x1fe;" horiz-adv-x="827" 
d="M-53 55l131 234q-8 37 -8 172v555q0 63 1 96.5t7.5 93.5t18.5 94t37 78t60.5 67.5t91 40.5t126.5 17q175 0 258 -96l73 133l129 -76l-127 -235q13 -50 13 -217v-547q0 -62 -1 -95.5t-7.5 -94t-18.5 -95t-37.5 -79.5t-61.5 -69t-92 -41.5t-128 -17.5q-102 0 -171.5 32
t-99.5 89l-65 -114zM217 1647l266 235l111 -178l-305 -162zM285 680l250 494q-3 137 -119 137q-28 0 -48.5 -8t-34.5 -19t-23.5 -34t-14.5 -41t-7 -53.5t-2.5 -57.5t-0.5 -66v-352zM287 362q0 -94 28 -143t101 -49q27 0 47 8t33.5 18.5t22.5 33t14 40t7 52.5t2.5 56.5
t0.5 65.5v418z" />
    <glyph glyph-name="oslashacute" unicode="&#x1ff;" horiz-adv-x="696" 
d="M16 16l66 123q-25 83 -25 195v352q0 187 68.5 274t222.5 87q117 0 184 -52l48 88l100 -57l-72 -133q31 -82 31 -207v-352q0 -189 -69 -275t-222 -86q-120 0 -194 58l-35 -68zM160 1223l266 235l111 -178l-306 -162zM258 453l174 350q-8 36 -27 53.5t-57 17.5
q-53 0 -71.5 -39.5t-18.5 -125.5v-256zM262 236q6 -43 26 -64.5t60 -21.5q25 0 41.5 8t26.5 20t14.5 35.5t6 45t1.5 56.5v277z" />
    <glyph glyph-name="Scommaaccent" unicode="&#x218;" horiz-adv-x="755" 
d="M53 113l133 145q73 -78 154 -78q67 0 108 40t41 122q0 50 -22 99t-56.5 93t-76.5 90.5t-84.5 98.5t-77 108.5t-56.5 129.5t-22 153q0 90 22 159.5t56 111t81 67.5t90.5 35.5t90.5 9.5q185 0 279 -131l-127 -139q-62 76 -137 76q-144 0 -144 -181q0 -64 41.5 -135
t101 -137.5t119 -136.5t101 -157t41.5 -175q0 -189 -96.5 -296.5t-266.5 -107.5q-61 0 -113.5 14t-87 36.5t-56 43t-36.5 42.5zM174 -434l74 332h233l-157 -332h-150z" />
    <glyph glyph-name="scommaaccent" unicode="&#x219;" horiz-adv-x="593" 
d="M25 82l106 133l8 -7q8 -7 10 -9t10.5 -8t13 -9t13.5 -8t17 -7.5t18 -5.5t20.5 -4t22.5 -1q55 0 82 28.5t27 91.5q0 42 -23.5 76t-58 56t-75.5 51.5t-75.5 60.5t-58 85.5t-23.5 123.5q0 141 72 229.5t205 88.5q53 0 94.5 -9.5t69 -28.5t39.5 -30.5t30 -32.5l-108 -127
l-11 11q-12 10 -15.5 12.5t-15 10t-20 10.5t-22 6t-27.5 3q-100 0 -100 -120q0 -39 17.5 -70t45.5 -53t61.5 -43t67.5 -46.5t62 -56.5t45.5 -79.5t17.5 -110.5q0 -160 -79 -238t-218 -78q-164 0 -245 105zM90 -434l74 332h233l-157 -332h-150z" />
    <glyph glyph-name="circumflex" unicode="&#x2c6;" horiz-adv-x="749" 
d="M123 1223l252 215l252 -215l-74 -105l-178 96l-178 -96z" />
    <glyph glyph-name="caron" unicode="&#x2c7;" horiz-adv-x="749" 
d="M123 1333l74 105l178 -97l178 97l74 -105l-252 -215z" />
    <glyph glyph-name="breve" unicode="&#x2d8;" horiz-adv-x="503" 
d="M10 1393h131q1 -21 3.5 -35t9 -31t18 -27t32 -17t48.5 -7q35 0 57.5 9t33 28t14 35.5t5.5 44.5h132q0 -127 -60.5 -198t-181.5 -71t-181.5 71t-60.5 198z" />
    <glyph glyph-name="dotaccent" unicode="&#x2d9;" horiz-adv-x="370" 
d="M72 1264q0 52 32 85t82 33q47 0 80 -33t33 -79q0 -50 -32.5 -82.5t-80.5 -32.5q-51 0 -82.5 30.5t-31.5 78.5z" />
    <glyph glyph-name="ring" unicode="&#x2da;" horiz-adv-x="520" 
d="M51 1311q0 94 59 154.5t148 60.5q87 0 146 -60t59 -145q0 -95 -57.5 -154t-147.5 -59q-91 0 -149 57t-58 146zM174 1317q0 -49 23 -77t63 -28q38 0 62 29t24 80q0 44 -25 72t-61 28q-38 0 -62 -28.5t-24 -75.5z" />
    <glyph glyph-name="ogonek" unicode="&#x2db;" horiz-adv-x="612" 
d="M174 -188q0 73 34 121.5t73 66.5h178q-71 -34 -110.5 -79.5t-39.5 -94.5q0 -62 64 -62q16 0 32.5 3t25.5 7l9 3l33 -115q-51 -22 -115 -22q-86 0 -135 45t-49 127z" />
    <glyph glyph-name="tilde" unicode="&#x2dc;" horiz-adv-x="561" 
d="M31 1247q36 72 84 105.5t96 33.5q45 0 100 -18t74 -18q53 0 88 51l82 -84q-33 -68 -79.5 -105.5t-96.5 -37.5q-43 0 -99.5 20t-74.5 20q-54 0 -88 -51z" />
    <glyph glyph-name="hungarumlaut" unicode="&#x2dd;" horiz-adv-x="782" 
d="M70 1147l174 369l176 -109l-236 -332zM420 1147l174 369l176 -109l-235 -332z" />
    <glyph glyph-name="tonos" unicode="&#x384;" horiz-adv-x="487" 
d="M164 1145v330h190l-61 -330h-129z" />
    <glyph glyph-name="dieresistonos" unicode="&#x385;" horiz-adv-x="698" 
d="M0 1290q0 52 32.5 85.5t82.5 33.5q47 0 79.5 -33.5t32.5 -79.5q0 -50 -32 -82t-80 -32q-51 0 -83 30.5t-32 77.5zM270 1145v330h191l-62 -330h-129zM471 1290q0 52 32.5 85.5t82.5 33.5q47 0 79.5 -33.5t32.5 -79.5q0 -50 -32 -82t-80 -32q-51 0 -83 30.5t-32 77.5z" />
    <glyph glyph-name="Alphatonos" unicode="&#x386;" horiz-adv-x="831" 
d="M10 1145v330h191l-62 -330h-129zM23 0l256 1475h256l274 -1475h-219l-53 346h-254l-52 -346h-208zM311 553h191l-99 614z" />
    <glyph glyph-name="Epsilontonos" unicode="&#x388;" horiz-adv-x="903" 
d="M23 1145v330h190l-61 -330h-129zM272 0v1475h574v-209h-371v-402h359v-207h-359v-446h385v-211h-588z" />
    <glyph glyph-name="Etatonos" unicode="&#x389;" horiz-adv-x="1011" 
d="M23 1145v330h190l-61 -330h-129zM272 0v1475h203v-611h258v611h203v-1475h-203v657h-258v-657h-203z" />
    <glyph glyph-name="Iotatonos" unicode="&#x38a;" horiz-adv-x="550" 
d="M23 1145v330h190l-61 -330h-129zM272 0v1475h203v-1475h-203z" />
    <glyph glyph-name="Omicrontonos" unicode="&#x38c;" horiz-adv-x="1003" 
d="M23 1145v330h190l-61 -330h-129zM246 461v555q0 63 1 96.5t7.5 93.5t18.5 94t37 78t60.5 67.5t91 40.5t126.5 17q72 0 128 -17.5t92 -41.5t61.5 -68.5t37.5 -79.5t18.5 -95t7.5 -93.5t1 -95.5v-547q0 -62 -1 -95.5t-7.5 -94t-18.5 -95t-37.5 -79.5t-61.5 -69t-92 -41.5
t-128 -17.5q-71 0 -126.5 17t-91 40.5t-60.5 67.5t-37 78.5t-18.5 94.5t-7.5 93.5t-1 96.5zM461 444q0 -43 0.5 -64.5t2.5 -56.5t7 -52.5t14.5 -40.5t23.5 -33.5t34.5 -18.5t48.5 -8q27 0 47 8t33.5 18.5t22.5 33t14 40t7 52.5t2.5 56.5t0.5 65.5v592q0 44 -0.5 65.5
t-2.5 56.5t-7 52.5t-14 40.5t-22.5 33.5t-33.5 18.5t-47 8q-28 0 -48.5 -8t-34.5 -19t-23.5 -34t-14.5 -41t-7 -53.5t-2.5 -57.5t-0.5 -66v-588z" />
    <glyph glyph-name="Upsilontonos" unicode="&#x38e;" horiz-adv-x="1112" 
d="M23 1145v330h190l-61 -330h-129zM279 1475h223l178 -590l178 590h209l-293 -859v-616h-203v616z" />
    <glyph glyph-name="Omegatonos" unicode="&#x38f;" horiz-adv-x="1011" 
d="M23 1145v330h190l-61 -330h-129zM254 0v166h113q-72 45 -92.5 147.5t-20.5 294.5v408q0 63 1 96.5t7.5 93.5t18.5 94t37 78t60.5 67.5t91 40.5t126.5 17q72 0 128 -17.5t92 -41.5t61.5 -68.5t37.5 -79.5t18.5 -95t7.5 -93.5t1 -95.5v-404q0 -97 -2.5 -153t-13 -120.5
t-34 -104.5t-61.5 -64h111v-166h-297v172q39 19 55 46.5t21.5 81.5t5.5 181v555q0 44 -0.5 65.5t-2.5 56.5t-7 52.5t-14 40.5t-22.5 33.5t-33.5 18.5t-47 8q-28 0 -48.5 -8t-34.5 -19t-23.5 -34t-14.5 -41t-7 -53.5t-2.5 -57.5t-0.5 -66v-551q0 -123 6.5 -180t22.5 -83
t53 -46v-172h-297z" />
    <glyph glyph-name="iotadieresistonos" unicode="&#x390;" horiz-adv-x="698" 
d="M0 1290q0 52 32.5 85.5t82.5 33.5q47 0 79.5 -33.5t32.5 -79.5q0 -50 -32 -82t-80 -32q-51 0 -83 30.5t-32 77.5zM240 184q0 -109 46 -152.5t144 -43.5q61 0 117 14v141q-24 -4 -53 -4q-37 0 -48.5 16t-11.5 68v799h-194v-838zM270 1145v330h191l-62 -330h-129zM471 1290
q0 52 32.5 85.5t82.5 33.5q47 0 79.5 -33.5t32.5 -79.5q0 -50 -32 -82t-80 -32q-51 0 -83 30.5t-32 77.5z" />
    <glyph glyph-name="Alpha" unicode="&#x391;" horiz-adv-x="831" 
d="M23 0l256 1475h256l274 -1475h-219l-53 346h-254l-52 -346h-208zM311 553h191l-99 614z" />
    <glyph glyph-name="Beta" unicode="&#x392;" horiz-adv-x="811" 
d="M76 0v1475h266q108 0 178.5 -14t124.5 -52t78.5 -108.5t24.5 -180.5v-82q0 -262 -187 -274q91 -11 141 -78.5t50 -183.5v-105q0 -74 -9.5 -131t-27 -99t-47 -71.5t-63.5 -48t-83.5 -29t-100 -14.5t-118.5 -4h-227zM279 201h67q113 0 152 43.5t39 161.5v71
q0 109 -39.5 144.5t-130.5 35.5h-88v-456zM279 848h83q175 0 175 170v67q0 113 -40 153t-139 40h-79v-430z" />
    <glyph glyph-name="Gamma" unicode="&#x393;" horiz-adv-x="641" 
d="M76 0v1475h553v-203h-350v-1272h-203z" />
    <glyph glyph-name="Delta" unicode="&#x394;" horiz-adv-x="831" 
d="M23 0l260 1475h247l279 -1475h-786zM262 203h299l-158 964z" />
    <glyph glyph-name="Epsilon" unicode="&#x395;" horiz-adv-x="706" 
d="M76 0v1475h573v-209h-370v-402h358v-207h-358v-446h385v-211h-588z" />
    <glyph glyph-name="Zeta" unicode="&#x396;" horiz-adv-x="712" 
d="M23 0v197l444 1069h-385v209h608v-199l-442 -1065h424v-211h-649z" />
    <glyph glyph-name="Eta" unicode="&#x397;" horiz-adv-x="815" 
d="M76 0v1475h203v-611h258v611h202v-1475h-202v657h-258v-657h-203z" />
    <glyph glyph-name="Theta" unicode="&#x398;" horiz-adv-x="827" 
d="M70 461v555q0 63 1 96.5t7.5 93.5t18.5 94t37 78t60.5 67.5t91 40.5t126.5 17q72 0 128 -17.5t92 -41.5t61.5 -68.5t37.5 -79.5t18.5 -95t7.5 -93.5t1 -95.5v-547q0 -62 -1 -95.5t-7.5 -94t-18.5 -95t-37.5 -79.5t-61.5 -69t-92 -41.5t-128 -17.5q-71 0 -126.5 17
t-91 40.5t-60.5 67.5t-37 78.5t-18.5 94.5t-7.5 93.5t-1 96.5zM281 444q0 -40 0.5 -64t3.5 -57t8 -52t15 -41t24 -33.5t35 -19t49 -7.5q31 0 53.5 8.5t37 28.5t23 40.5t12 57t4.5 64t1 75.5v592q0 48 -1 75.5t-4.5 64t-12 57t-23 41t-37 29t-53.5 8.5q-32 0 -55.5 -9
t-38 -29.5t-23 -41t-12.5 -57.5t-5 -65.5t-1 -76.5v-588zM330 662v198h168v-198h-168z" />
    <glyph glyph-name="Iota" unicode="&#x399;" horiz-adv-x="354" 
d="M76 0v1475h203v-1475h-203z" />
    <glyph glyph-name="Kappa" unicode="&#x39a;" horiz-adv-x="768" 
d="M76 0v1475h203v-713l260 713h209l-273 -742l297 -733h-235l-258 686v-686h-203z" />
    <glyph glyph-name="Lambda" unicode="&#x39b;" horiz-adv-x="831" 
d="M23 0l256 1475h256l274 -1475h-219l-187 1167l-172 -1167h-208z" />
    <glyph glyph-name="Mu" unicode="&#x39c;" horiz-adv-x="1155" 
d="M76 0v1475h295l209 -1072l208 1072h291v-1475h-186v1133l-227 -1133h-185l-227 1133v-1133h-178z" />
    <glyph glyph-name="Nu" unicode="&#x39d;" horiz-adv-x="815" 
d="M76 0v1475h217l272 -992v992h174v-1475h-213l-276 1008v-1008h-174z" />
    <glyph glyph-name="Xi" unicode="&#x39e;" horiz-adv-x="706" 
d="M76 0v211h588v-211h-588zM76 657v207h561v-207h-561zM76 1266v209h573v-209h-573z" />
    <glyph glyph-name="Omicron" unicode="&#x39f;" horiz-adv-x="827" 
d="M70 461v555q0 63 1 96.5t7.5 93.5t18.5 94t37 78t60.5 67.5t91 40.5t126.5 17q72 0 128 -17.5t92 -41.5t61.5 -68.5t37.5 -79.5t18.5 -95t7.5 -93.5t1 -95.5v-547q0 -62 -1 -95.5t-7.5 -94t-18.5 -95t-37.5 -79.5t-61.5 -69t-92 -41.5t-128 -17.5q-71 0 -126.5 17
t-91 40.5t-60.5 67.5t-37 78.5t-18.5 94.5t-7.5 93.5t-1 96.5zM285 444q0 -43 0.5 -64.5t2.5 -56.5t7 -52.5t14.5 -40.5t23.5 -33.5t34.5 -18.5t48.5 -8q27 0 47 8t33.5 18.5t22.5 33t14 40t7 52.5t2.5 56.5t0.5 65.5v592q0 44 -0.5 65.5t-2.5 56.5t-7 52.5t-14 40.5
t-22.5 33.5t-33.5 18.5t-47 8q-28 0 -48.5 -8t-34.5 -19t-23.5 -34t-14.5 -41t-7 -53.5t-2.5 -57.5t-0.5 -66v-588z" />
    <glyph glyph-name="Pi" unicode="&#x3a0;" horiz-adv-x="815" 
d="M76 0v1475h663v-1475h-202v1272h-258v-1272h-203z" />
    <glyph glyph-name="Rho" unicode="&#x3a1;" horiz-adv-x="790" 
d="M76 0v1475h266q62 0 108 -3.5t90.5 -13t75 -26t57.5 -43t42.5 -64t24 -88.5t8.5 -117v-194q0 -119 -22.5 -193.5t-74.5 -115t-119.5 -54.5t-175.5 -14h-77v-549h-203zM279 743h83q95 0 135 37.5t40 132.5v172q0 62 -9.5 100t-33 58.5t-54.5 27.5t-82 7h-79v-535z" />
    <glyph glyph-name="Sigma" unicode="&#x3a3;" horiz-adv-x="681" 
d="M20 0v193l277 557l-274 518v207h608v-203h-375l276 -520l-276 -555h414v-197h-650z" />
    <glyph glyph-name="Tau" unicode="&#x3a4;" horiz-adv-x="784" 
d="M12 1272v203h760v-203h-278v-1272h-203v1272h-279z" />
    <glyph glyph-name="Upsilon" unicode="&#x3a5;" horiz-adv-x="821" 
d="M16 1475h224l178 -590l178 590h209l-293 -859v-616h-203v616z" />
    <glyph glyph-name="Phi" unicode="&#x3a6;" horiz-adv-x="1026" 
d="M70 637v203q0 41 0.5 67.5t3 66.5t7.5 67t13.5 62.5t22.5 59.5t32 50.5t44.5 44t59 32.5t75 22t92.5 7v156h186v-156q50 0 92.5 -7t75 -22t59 -32.5t44.5 -44t32 -50.5t22.5 -59.5t13.5 -62.5t7.5 -67t3 -66.5t0.5 -67.5v-203q0 -41 -0.5 -67.5t-3 -66.5t-7.5 -67
t-13.5 -62.5t-22.5 -59.5t-32 -50.5t-44.5 -44t-59 -32.5t-75 -22t-92.5 -7v-158h-186v158q-50 0 -92.5 7t-75 22t-59 32.5t-44.5 44t-32 50.5t-22.5 59.5t-13.5 62.5t-7.5 67t-3 66.5t-0.5 67.5zM276 614q0 -54 2 -87t10 -70t23 -57t42 -33t67 -13v772q-40 0 -67 -13
t-42 -33t-23 -57.5t-10 -71.5t-2 -89v-248zM606 354q40 0 67 13t42 33t23 57t10 70t2 87v248q0 55 -2 89t-10 71.5t-23 57.5t-42 33t-67 13v-772z" />
    <glyph glyph-name="Chi" unicode="&#x3a7;" horiz-adv-x="825" 
d="M16 0l283 754l-258 721h231l146 -496l147 496h211l-246 -719l279 -756h-229l-174 520l-173 -520h-217z" />
    <glyph glyph-name="Psi" unicode="&#x3a8;" horiz-adv-x="1026" 
d="M70 1108v367h198v-390q0 -52 2.5 -86.5t11 -70.5t24 -56.5t43 -33.5t67.5 -13v650h194v-650q40 0 67.5 13t43 33.5t24 56.5t11 70.5t2.5 86.5v390h198v-367q0 -47 -0.5 -75t-4 -74t-9.5 -74t-18 -67t-29 -63t-43.5 -50.5t-60 -41t-79.5 -24.5t-102 -10v-629h-194v629
q-56 0 -102 10t-79.5 24.5t-60 41t-43.5 50.5t-29 63t-18 67t-9.5 74t-4 74t-0.5 75z" />
    <glyph glyph-name="Omega" unicode="&#x3a9;" horiz-adv-x="827" 
d="M70 0v166h112q-72 45 -92 147t-20 295v408q0 63 1 96.5t7.5 93.5t18.5 94t37 78t60.5 67.5t91 40.5t126.5 17q72 0 128 -17.5t92 -41.5t61.5 -68.5t37.5 -79.5t18.5 -95t7.5 -93.5t1 -95.5v-404q0 -97 -2.5 -153t-13 -120.5t-34 -104.5t-61.5 -64h111v-166h-297v172
q39 19 55 46.5t21.5 81.5t5.5 181v555q0 44 -0.5 65.5t-2.5 56.5t-7 52.5t-14 40.5t-22.5 33.5t-33.5 18.5t-47 8q-28 0 -48.5 -8t-34.5 -19t-23.5 -34t-14.5 -41t-7 -53.5t-2.5 -57.5t-0.5 -66v-551q0 -123 6.5 -180t22.5 -83t53 -46v-172h-297z" />
    <glyph glyph-name="Iotadieresis" unicode="&#x3aa;" horiz-adv-x="354" 
d="M-125 1712q0 50 34.5 85.5t86.5 35.5t86.5 -35.5t34.5 -85.5q0 -55 -34 -90t-87 -35t-87 35t-34 90zM76 0v1475h203v-1475h-203zM238 1712q0 50 34 85.5t86 35.5t86.5 -35.5t34.5 -85.5q0 -55 -34 -90t-87 -35t-86.5 35t-33.5 90z" />
    <glyph glyph-name="Upsilondieresis" unicode="&#x3ab;" horiz-adv-x="821" 
d="M16 1475h224l178 -590l178 590h209l-293 -859v-616h-203v616zM121 1712q0 50 34.5 85.5t86.5 35.5t86 -35.5t34 -85.5q0 -55 -33.5 -90t-86.5 -35t-87 35t-34 90zM483 1712q0 50 34.5 85.5t86.5 35.5t86.5 -35.5t34.5 -85.5q0 -55 -34 -90t-87 -35t-87 35t-34 90z" />
    <glyph glyph-name="alphatonos" unicode="&#x3ac;" horiz-adv-x="686" 
d="M55 303v412q0 173 52.5 252.5t166.5 79.5q71 0 128.5 -33t80.5 -113l13 121h155l-53 -518l76 -504h-166l-14 141q-24 -77 -68.5 -118t-140.5 -41q-132 0 -181 78t-49 243zM254 1145v330h190l-61 -330h-129zM256 281q0 -68 16 -92.5t50 -24.5q39 0 59.5 35t30.5 149
l14 174l-23 178q-11 85 -28 119.5t-51 34.5q-36 0 -52 -28t-16 -89v-456z" />
    <glyph glyph-name="epsilontonos" unicode="&#x3ad;" horiz-adv-x="653" 
d="M57 313v23q0 67 29 122.5t90 69.5q-65 14 -87.5 55.5t-22.5 118.5v17q0 34 1.5 59.5t8 61.5t18 62.5t33.5 55.5t52.5 47t77 30t105.5 12q175 0 250 -132l-133 -108q-41 67 -112 67q-63 0 -85 -38.5t-22 -108.5v-41q0 -54 26.5 -71t78.5 -17h86v-158h-99q-52 0 -73 -24
t-21 -88v-15q0 -81 26.5 -119t88.5 -38q72 0 121 65l122 -123q-84 -125 -258 -125q-160 0 -230.5 84.5t-70.5 255.5zM287 1145v330h190l-61 -330h-129z" />
    <glyph glyph-name="etatonos" unicode="&#x3ae;" horiz-adv-x="681" 
d="M70 0v1022h137l20 -100q20 25 36.5 42t43.5 38.5t60.5 33t70.5 11.5q31 0 55 -5t42 -16.5t31 -24.5t21.5 -35t13.5 -42t7.5 -51.5t3 -57t0.5 -65.5v-1088h-194v1051q0 78 -13.5 101.5t-50.5 23.5q-43 0 -90 -41v-797h-194zM285 1145v330h190l-61 -330h-129z" />
    <glyph glyph-name="iotatonos" unicode="&#x3af;" horiz-adv-x="376" 
d="M70 184q0 -109 46 -152.5t144 -43.5q61 0 117 14v141q-24 -4 -53 -4q-37 0 -48.5 16t-11.5 68v799h-194v-838zM98 1145v330h191l-62 -330h-129z" />
    <glyph glyph-name="upsilondieresistonos" unicode="&#x3b0;" horiz-adv-x="743" 
d="M12 903v139q23 5 70 5q114 0 170.5 -63.5t56.5 -195.5v-473q0 -86 18.5 -125.5t71.5 -39.5q25 0 41.5 8t26.5 20t14.5 35.5t6 45t1.5 56.5v707h201v-688q0 -189 -69 -275t-222 -86t-221.5 87t-68.5 274v442q0 73 -20 99t-77 28zM45 1290q0 52 32.5 85.5t82.5 33.5
q47 0 79.5 -33.5t32.5 -79.5q0 -50 -32 -82t-80 -32q-51 0 -83 30.5t-32 77.5zM315 1145v330h191l-62 -330h-129zM516 1290q0 52 32.5 85.5t82.5 33.5q47 0 79.5 -33.5t32.5 -79.5q0 -50 -32 -82t-80 -32q-51 0 -83 30.5t-32 77.5z" />
    <glyph glyph-name="alpha" unicode="&#x3b1;" horiz-adv-x="686" 
d="M55 303v412q0 173 52.5 252.5t166.5 79.5q71 0 128.5 -33t80.5 -113l13 121h155l-53 -518l76 -504h-166l-14 141q-24 -77 -68.5 -118t-140.5 -41q-132 0 -181 78t-49 243zM256 281q0 -68 16 -92.5t50 -24.5q39 0 59.5 35t30.5 149l14 174l-23 178q-11 85 -28 119.5
t-51 34.5q-36 0 -52 -28t-16 -89v-456z" />
    <glyph glyph-name="beta" unicode="&#x3b2;" horiz-adv-x="714" 
d="M70 -338v1487q0 187 65.5 270.5t218.5 83.5t220 -85t67 -275v-113q0 -76 -25 -118t-90 -56q61 -14 90 -69.5t29 -122.5v-361q0 -160 -50.5 -236.5t-180.5 -76.5q-44 0 -87 16t-63 41v-385h-194zM264 340q0 -86 18.5 -126t71.5 -40q25 0 41.5 8t26 20.5t14.5 35.5t6.5 45
t1.5 57v278q0 50 -6 80.5t-20 44t-28 17.5t-38 4h-18v170h18q24 0 38 3.5t28 17t20 44t6 80.5v86q0 35 -1.5 57t-6.5 45t-14.5 35.5t-26 20.5t-41.5 8q-53 0 -71.5 -40t-18.5 -126v-825z" />
    <glyph glyph-name="gamma" unicode="&#x3b3;" horiz-adv-x="669" 
d="M10 1022h205l127 -696l123 696h194l-227 -1022v-338h-194v338z" />
    <glyph glyph-name="delta" unicode="&#x3b4;" horiz-adv-x="692" 
d="M55 334v418q0 81 17 139t46.5 88t63.5 43.5t74 13.5q42 0 68 -16q-10 10 -43 43.5t-41 43t-29 36.5t-26.5 44.5t-12 45t-6.5 59.5q0 47 17 84.5t45 61t66 38.5t77 21t82 6q79 0 129 -16v-158q-52 12 -107 12q-106 0 -106 -65q0 -29 20 -59.5t49.5 -57.5t64.5 -67
t64.5 -83.5t49.5 -112t20 -148.5v-414q0 -187 -68.5 -274t-222.5 -87q-153 0 -222 86t-69 275zM256 315q0 -86 18.5 -125.5t71.5 -39.5q25 0 41.5 8t26.5 20t14.5 35.5t6 45t1.5 56.5v394q0 35 -1.5 56.5t-6 45t-14.5 35.5t-26.5 20t-41.5 8q-53 0 -71.5 -39.5t-18.5 -125.5
v-394z" />
    <glyph glyph-name="epsilon" unicode="&#x3b5;" horiz-adv-x="653" 
d="M57 313v23q0 67 29 122.5t90 69.5q-65 14 -87.5 55.5t-22.5 118.5v17q0 34 1.5 59.5t8 61.5t18 62.5t33.5 55.5t52.5 47t77 30t105.5 12q175 0 250 -132l-133 -108q-41 67 -112 67q-63 0 -85 -38.5t-22 -108.5v-41q0 -54 26.5 -71t78.5 -17h86v-158h-99q-52 0 -73 -24
t-21 -88v-15q0 -81 26.5 -119t88.5 -38q72 0 121 65l122 -123q-84 -125 -258 -125q-160 0 -230.5 84.5t-70.5 255.5z" />
    <glyph glyph-name="zeta" unicode="&#x3b6;" horiz-adv-x="636" 
d="M57 397v92q0 260 67 418t218 260h-248v164h506v-145q-126 -76 -198.5 -160.5t-108 -206t-35.5 -299.5v-108q0 -83 4.5 -128.5t19.5 -73t34.5 -37.5t58.5 -17q97 -20 123 -30q83 -34 98 -130q4 -24 4 -53q0 -162 -61 -281h-189q60 135 60 225q0 63 -23 83.5t-94 29.5
q-95 13 -143.5 48t-70.5 115.5t-22 233.5z" />
    <glyph glyph-name="eta" unicode="&#x3b7;" horiz-adv-x="681" 
d="M70 0v1022h137l20 -100q20 25 36.5 42t43.5 38.5t60.5 33t70.5 11.5q31 0 55 -5t42 -16.5t31 -24.5t21.5 -35t13.5 -42t7.5 -51.5t3 -57t0.5 -65.5v-1088h-194v1051q0 78 -13.5 101.5t-50.5 23.5q-43 0 -90 -41v-797h-194z" />
    <glyph glyph-name="theta" unicode="&#x3b8;" horiz-adv-x="684" 
d="M55 334v809q0 187 67 273.5t220 86.5t220 -85t67 -275v-809q0 -190 -67 -275.5t-220 -85.5t-220 87t-67 274zM252 309q0 -86 18.5 -126t71.5 -40q25 0 41.5 8t26 20.5t14.5 35.5t6.5 45t1.5 57v402h-180v-402zM252 881h180v290q0 35 -1.5 57t-6.5 45t-14.5 35.5t-26 20.5
t-41.5 8q-53 0 -71.5 -40t-18.5 -126v-290z" />
    <glyph glyph-name="iota" unicode="&#x3b9;" horiz-adv-x="376" 
d="M70 184v838h194v-799q0 -52 11.5 -68t48.5 -16q29 0 53 4v-141q-56 -14 -117 -14q-98 0 -144 43.5t-46 152.5z" />
    <glyph glyph-name="kappa" unicode="&#x3ba;" horiz-adv-x="624" 
d="M70 0v1022h194v-485l160 485h192l-172 -508l181 -514h-207l-154 469v-469h-194z" />
    <glyph glyph-name="lambda" unicode="&#x3bb;" horiz-adv-x="673" 
d="M12 0l226 1026l-13 76q-23 134 -50.5 177.5t-98.5 43.5q-24 0 -47 -2v162q32 8 98 8q65 0 110.5 -22t77.5 -73t52.5 -115t42.5 -167l252 -1114h-205l-129 680l-121 -680h-195z" />
    <glyph glyph-name="mu" unicode="&#x3bc;" horiz-adv-x="681" 
d="M70 -338v1360h194v-713q0 -79 13.5 -102t52.5 -23q43 0 88 41v797h194v-1022h-137l-20 92q-23 -28 -38 -43t-39 -33t-54 -26t-68 -8v-320h-186z" />
    <glyph glyph-name="nu" unicode="&#x3bd;" horiz-adv-x="669" 
d="M10 1022h205l127 -737l123 737h194l-208 -1022h-232z" />
    <glyph glyph-name="xi" unicode="&#x3be;" horiz-adv-x="636" 
d="M57 397v181q0 44 4.5 78t16.5 71.5t38 64.5t66 39q-64 14 -89 64.5t-25 130.5v150q0 34 1.5 59.5t8 61.5t18 62.5t34 55t53 46.5t77 30t105.5 12q175 0 249 -131l-133 -108q-41 67 -112 67q-63 0 -85 -38.5t-22 -108.5v-137q0 -69 20.5 -103.5t82.5 -34.5h86v-174h-78
q-31 0 -52.5 -9t-33.5 -23t-19 -38t-8.5 -46.5t-1.5 -57.5v-149q0 -83 4.5 -128.5t19.5 -73t34.5 -37.5t58.5 -17q97 -20 123 -30q83 -34 98 -130q4 -24 4 -53q0 -162 -61 -281h-189q60 135 60 225q0 63 -23 83.5t-94 29.5q-95 13 -143.5 48t-70.5 115.5t-22 233.5z" />
    <glyph glyph-name="omicron" unicode="&#x3bf;" horiz-adv-x="692" 
d="M55 334v352q0 187 68.5 274t222.5 87q153 0 222 -86t69 -275v-352q0 -189 -69 -275t-222 -86q-154 0 -222.5 87t-68.5 274zM256 315q0 -86 18.5 -125.5t71.5 -39.5q25 0 41.5 8t26.5 20t14.5 35.5t6 45t1.5 56.5v394q0 35 -1.5 56.5t-6 45t-14.5 35.5t-26.5 20t-41.5 8
q-53 0 -71.5 -39.5t-18.5 -125.5v-394z" />
    <glyph glyph-name="pi" unicode="&#x3c0;" horiz-adv-x="792" 
d="M12 840v182h768v-182h-112v-617q0 -52 11 -68t48 -16q29 0 53 4v-141q-56 -14 -116 -14q-98 0 -144.5 44t-46.5 152v656h-154v-840h-194v840h-113z" />
    <glyph glyph-name="rho" unicode="&#x3c1;" horiz-adv-x="696" 
d="M66 -338v1030q0 187 65.5 271t218.5 84t222 -86t69 -275v-383q0 -160 -50.5 -236.5t-180.5 -76.5q-44 0 -87 16t-63 41v-385h-194zM260 340q0 -86 18.5 -126t71.5 -40q25 0 41.5 8t26 20.5t14.5 35.5t6.5 45t1.5 57v369q0 35 -1.5 56.5t-6 45t-14.5 35.5t-26.5 20
t-41.5 8q-53 0 -71.5 -39.5t-18.5 -125.5v-369z" />
    <glyph glyph-name="sigma1" unicode="&#x3c2;" horiz-adv-x="624" 
d="M57 397v279q0 70 6.5 121t25.5 100.5t52 80.5t88.5 50t132.5 19q175 0 250 -132l-141 -116q-41 67 -104 67q-29 0 -49 -10.5t-31.5 -27t-18 -45t-8.5 -57t-2 -71.5v-243q0 -83 4.5 -128.5t19.5 -73t34.5 -37.5t58.5 -17q97 -20 123 -30q83 -34 98 -130q4 -24 4 -53
q0 -162 -61 -281h-189q60 135 60 225q0 63 -23 83.5t-94 29.5q-95 13 -143.5 48t-70.5 115.5t-22 233.5z" />
    <glyph glyph-name="sigma" unicode="&#x3c3;" horiz-adv-x="806" 
d="M55 334v328q0 201 62.5 280.5t224.5 79.5h410v-182h-140q25 -52 25 -174v-332q0 -189 -69 -275t-222 -86q-154 0 -222.5 87t-68.5 274zM256 315q0 -86 18.5 -125.5t71.5 -39.5q25 0 41.5 8t26.5 20t14.5 35.5t6 45t1.5 56.5v394q0 35 -1.5 56.5t-6 45t-14.5 35.5
t-26.5 20t-41.5 8q-53 0 -71.5 -39.5t-18.5 -125.5v-394z" />
    <glyph glyph-name="tau" unicode="&#x3c4;" horiz-adv-x="608" 
d="M12 840v182h584v-182h-195v-617q0 -52 11.5 -68t48.5 -16q29 0 53 4v-141q-56 -14 -117 -14q-98 0 -144 43.5t-46 152.5v656h-195z" />
    <glyph glyph-name="upsilon" unicode="&#x3c5;" horiz-adv-x="759" 
d="M12 903v139q23 5 70 5q114 0 170.5 -63.5t56.5 -195.5v-473q0 -86 18.5 -125.5t71.5 -39.5q25 0 41.5 8t26.5 20t14.5 35.5t6 45t1.5 56.5v707h201v-688q0 -189 -69 -275t-222 -86t-221.5 87t-68.5 274v442q0 73 -20 99t-77 28z" />
    <glyph glyph-name="phi" unicode="&#x3c6;" horiz-adv-x="1067" 
d="M55 424v364q0 259 228 259q47 0 69 -5v-139q-57 -1 -76.5 -27t-19.5 -100v-354q0 -51 3.5 -87t15 -70.5t31 -55.5t52 -34t78.5 -13v530q0 187 66 271t219 84t222 -86t69 -275v-262q0 -53 -3 -94t-13 -88t-26.5 -82t-45 -68.5t-68 -55t-96.5 -35.5t-129 -15v-324h-195v324
q-72 1 -129 15t-96.5 35.5t-68 55t-45 68.5t-26.5 82t-13 88t-3 94zM631 162q46 0 78.5 13t52 34t31 55.5t15 70.5t3.5 87v287q0 35 -1.5 56.5t-6 45t-14.5 35.5t-26.5 20t-41.5 8q-53 0 -71.5 -39.5t-18.5 -125.5v-547z" />
    <glyph glyph-name="chi" unicode="&#x3c7;" horiz-adv-x="626" 
d="M-4 -338l205 690l-191 670h205l102 -463l109 463h190l-192 -666l207 -694h-203l-121 490l-114 -490h-197z" />
    <glyph glyph-name="psi" unicode="&#x3c8;" horiz-adv-x="1030" 
d="M70 408v614h194v-633q0 -35 1 -53.5t4.5 -50.5t13.5 -49.5t26.5 -37t44 -28t64.5 -8.5v1079l194 45v-1124q37 0 64.5 8.5t44 28t26.5 37t13.5 49.5t4.5 50.5t1 53.5v633h195v-614q0 -82 -6.5 -137.5t-27.5 -110.5t-58.5 -88.5t-101.5 -56.5t-155 -29v-324h-194v324
q-76 5 -133 20.5t-95 43.5t-62 61.5t-36.5 83t-17 97.5t-4.5 116z" />
    <glyph glyph-name="omega" unicode="&#x3c9;" horiz-adv-x="1001" 
d="M55 309v479q0 132 56 195.5t170 63.5q43 0 65 -5v-139q-57 -1 -76.5 -27t-19.5 -100v-485q0 -73 16 -107t62 -34q21 0 35.5 7t22 17t11.5 30t5 37.5t1 49.5v334h195v-334q0 -73 16 -107t62 -34q21 0 35.5 7t22.5 17t12 30t5 38t1 49v485q0 73 -20 99t-77 28v139
q23 5 66 5q113 0 169 -63.5t56 -195.5v-479q0 -177 -64 -256.5t-208 -79.5q-116 0 -172 78q-56 -78 -176 -78q-143 0 -207 81t-64 255z" />
    <glyph glyph-name="iotadieresis" unicode="&#x3ca;" horiz-adv-x="528" 
d="M0 1264q0 52 32.5 85t82.5 33q47 0 79.5 -33t32.5 -79q0 -50 -32 -82.5t-80 -32.5q-51 0 -83 30.5t-32 78.5zM166 184q0 -109 46 -152.5t144 -43.5q61 0 117 14v141q-24 -4 -53 -4q-37 0 -48.5 16t-11.5 68v799h-194v-838zM301 1264q0 52 32.5 85t82.5 33q47 0 79.5 -33
t32.5 -79q0 -50 -32 -82.5t-80 -32.5q-51 0 -83 30.5t-32 78.5z" />
    <glyph glyph-name="upsilondieresis" unicode="&#x3cb;" horiz-adv-x="759" 
d="M12 903v139q23 5 70 5q114 0 170.5 -63.5t56.5 -195.5v-473q0 -86 18.5 -125.5t71.5 -39.5q25 0 41.5 8t26.5 20t14.5 35.5t6 45t1.5 56.5v707h201v-688q0 -189 -69 -275t-222 -86t-221.5 87t-68.5 274v442q0 73 -20 99t-77 28zM129 1264q0 52 32.5 85t82.5 33
q47 0 79.5 -33t32.5 -79q0 -50 -32 -82.5t-80 -32.5q-51 0 -83 30.5t-32 78.5zM430 1264q0 52 32.5 85t82.5 33q47 0 79.5 -33t32.5 -79q0 -50 -32 -82.5t-80 -32.5q-51 0 -83 30.5t-32 78.5z" />
    <glyph glyph-name="omicrontonos" unicode="&#x3cc;" horiz-adv-x="692" 
d="M55 334v352q0 187 68.5 274t222.5 87q153 0 222 -86t69 -275v-352q0 -189 -69 -275t-222 -86q-154 0 -222.5 87t-68.5 274zM256 315q0 -86 18.5 -125.5t71.5 -39.5q25 0 41.5 8t26.5 20t14.5 35.5t6 45t1.5 56.5v394q0 35 -1.5 56.5t-6 45t-14.5 35.5t-26.5 20t-41.5 8
q-53 0 -71.5 -39.5t-18.5 -125.5v-394zM274 1145v330h191l-62 -330h-129z" />
    <glyph glyph-name="upsilontonos" unicode="&#x3cd;" horiz-adv-x="759" 
d="M12 903v139q23 5 70 5q114 0 170.5 -63.5t56.5 -195.5v-473q0 -86 18.5 -125.5t71.5 -39.5q25 0 41.5 8t26.5 20t14.5 35.5t6 45t1.5 56.5v707h201v-688q0 -189 -69 -275t-222 -86t-221.5 87t-68.5 274v442q0 73 -20 99t-77 28zM319 1145v330h191l-61 -330h-130z" />
    <glyph glyph-name="omegatonos" unicode="&#x3ce;" horiz-adv-x="1001" 
d="M55 309q0 -174 64 -255t207 -81q120 0 176 78q56 -78 172 -78q144 0 208 79.5t64 256.5v479q0 132 -56 195.5t-169 63.5q-43 0 -66 -5v-139q57 -2 77 -28t20 -99v-485q0 -31 -1 -49t-5 -38t-12 -30t-22.5 -17t-35.5 -7q-46 0 -62 34t-16 107v334h-195v-334
q0 -32 -1 -49.5t-5 -37.5t-11.5 -30t-22 -17t-35.5 -7q-46 0 -62 34t-16 107v485q0 74 19.5 100t76.5 27v139q-22 5 -65 5q-114 0 -170 -63.5t-56 -195.5v-479zM426 1145v330h190l-61 -330h-129z" />
    <glyph glyph-name="uni0400" unicode="&#x400;" horiz-adv-x="706" 
d="M76 0v1475h573v-209h-370v-402h358v-207h-358v-446h385v-211h-588zM186 1704l111 178l266 -235l-71 -105z" />
    <glyph glyph-name="afii10023" unicode="&#x401;" horiz-adv-x="706" 
d="M59 1712q0 50 34.5 85.5t86.5 35.5t86.5 -35.5t34.5 -85.5q0 -55 -34 -90t-87 -35t-87 35t-34 90zM72 0v1475h573v-209h-371v-402h359v-207h-359v-446h385v-211h-587zM422 1712q0 50 34.5 85.5t86.5 35.5t86.5 -35.5t34.5 -85.5q0 -55 -34 -90t-87 -35t-87 35t-34 90z
" />
    <glyph glyph-name="afii10051" unicode="&#x402;" horiz-adv-x="1036" 
d="M37 1272v203h760v-203h-279v-346q116 96 225 96q60 0 103 -14t68.5 -37.5t40 -63t19.5 -81t5 -101.5v-709q0 -68 -3.5 -113.5t-17.5 -95t-38.5 -78.5t-69.5 -48t-109 -19q-84 0 -143 16v162q38 -6 80 -6q62 0 80 34t18 130v707q0 76 -22 100t-78 24q-43 0 -88.5 -24
t-69.5 -45v-760h-203v1272h-278z" />
    <glyph glyph-name="afii10052" unicode="&#x403;" horiz-adv-x="641" 
d="M76 0v1475h553v-203h-350v-1272h-203zM162 1647l266 235l111 -178l-306 -162z" />
    <glyph glyph-name="afii10053" unicode="&#x404;" horiz-adv-x="714" 
d="M70 424v629q0 82 7 143t28 122t57 99t98.5 62t147.5 24q110 0 175 -34t113 -99l-133 -131q-58 72 -141 72q-75 0 -106 -49t-31 -166v-232h258v-207h-258v-270q0 -120 28.5 -167.5t104.5 -47.5q40 0 76 14.5t50 26t38 33.5l120 -152q-38 -48 -111.5 -84.5t-176.5 -36.5
q-86 0 -148 22.5t-99.5 59.5t-59.5 97t-29.5 123t-7.5 149z" />
    <glyph glyph-name="afii10054" unicode="&#x405;" horiz-adv-x="755" 
d="M53 113l133 145q73 -78 154 -78q67 0 108 40t41 122q0 50 -22 99t-56.5 93t-76.5 90.5t-84.5 98.5t-77 108.5t-56.5 129.5t-22 153q0 90 22 159.5t56 111t81 67.5t90.5 35.5t90.5 9.5q185 0 279 -131l-127 -139q-62 76 -137 76q-144 0 -144 -181q0 -64 41.5 -135
t101 -137.5t119 -136.5t101 -157t41.5 -175q0 -189 -96.5 -296.5t-266.5 -107.5q-61 0 -113.5 14t-87 36.5t-56 43t-36.5 42.5z" />
    <glyph glyph-name="afii10055" unicode="&#x406;" horiz-adv-x="354" 
d="M76 0v1475h203v-1475h-203z" />
    <glyph glyph-name="afii10056" unicode="&#x407;" horiz-adv-x="354" 
d="M-125 1712q0 50 34.5 85.5t86.5 35.5t86.5 -35.5t34.5 -85.5q0 -55 -34 -90t-87 -35t-87 35t-34 90zM76 0v1475h203v-1475h-203zM238 1712q0 50 34 85.5t86 35.5t86.5 -35.5t34.5 -85.5q0 -55 -34 -90t-87 -35t-86.5 35t-33.5 90z" />
    <glyph glyph-name="afii10057" unicode="&#x408;" horiz-adv-x="667" 
d="M16 55l95 162q74 -51 145 -51q78 0 108.5 48t30.5 167v1094h203v-1113q0 -202 -78 -295.5t-260 -93.5q-81 0 -146 25t-98 57z" />
    <glyph glyph-name="afii10058" unicode="&#x409;" horiz-adv-x="1347" 
d="M16 0v162q37 -2 52 -2q49 0 70.5 18t25.5 72l106 1225h561v-627h107q54 0 86.5 -1.5t76 -8.5t69.5 -20.5t55 -39t44 -62.5t25.5 -92t10.5 -126v-121q0 -117 -28 -193t-87 -115.5t-131.5 -54t-181.5 -14.5h-248v1272h-176l-88 -1024q-6 -70 -17 -114t-36.5 -79.5t-71 -51
t-115.5 -15.5q-55 0 -109 12zM831 197h84q95 0 135 37.5t40 132.5v110q0 60 -8.5 95t-31.5 54t-53.5 25t-85.5 6h-80v-460z" />
    <glyph glyph-name="afii10059" unicode="&#x40a;" horiz-adv-x="1255" 
d="M76 0v1475h203v-611h258v611h202v-627h107q42 0 67.5 -1t61.5 -4.5t58.5 -10t50 -18.5t44.5 -30t35 -44.5t27.5 -60.5t15.5 -79.5t6 -101.5v-121q0 -117 -28 -193t-87 -115.5t-131.5 -54t-181.5 -14.5h-247v657h-258v-657h-203zM739 197h84q48 0 81 9.5t51 23.5t28 38.5
t12 45.5t2 53v110q0 60 -8 95t-31 54t-53.5 25t-85.5 6h-80v-460z" />
    <glyph glyph-name="afii10060" unicode="&#x40b;" horiz-adv-x="1048" 
d="M37 1272v203h760v-203h-279v-346q116 96 225 96q60 0 103 -14t68.5 -37.5t40 -63t19.5 -81t5 -101.5v-725h-203v705q0 76 -22 100t-78 24q-43 0 -88.5 -24t-69.5 -45v-760h-203v1272h-278z" />
    <glyph glyph-name="afii10061" unicode="&#x40c;" horiz-adv-x="768" 
d="M76 0v1475h203v-713l260 713h209l-273 -742l297 -733h-235l-258 686v-686h-203zM195 1647l266 235l110 -178l-305 -162z" />
    <glyph glyph-name="uni040D" unicode="&#x40d;" horiz-adv-x="815" 
d="M76 0h209l280 1012v-1012h174v1475h-211l-278 -996v996h-174v-1475zM227 1704l111 178l266 -235l-72 -105z" />
    <glyph glyph-name="afii10062" unicode="&#x40e;" horiz-adv-x="821" 
d="M16 1475h224l180 -637l176 637h209l-438 -1475h-217l165 524zM168 1860h131q1 -21 3.5 -35t9 -31t18 -27t32 -17t48.5 -7q35 0 57.5 9t33 28t14 35.5t5.5 44.5h131q0 -127 -60 -198t-181 -71t-181.5 71t-60.5 198z" />
    <glyph glyph-name="afii10145" unicode="&#x40f;" horiz-adv-x="815" 
d="M76 0v1475h203v-1272h258v1272h202v-1475h-235v-297h-193v297h-235z" />
    <glyph glyph-name="afii10017" unicode="&#x410;" horiz-adv-x="831" 
d="M23 0l256 1475h256l274 -1475h-219l-53 346h-254l-52 -346h-208zM311 553h191l-99 614z" />
    <glyph glyph-name="afii10018" unicode="&#x411;" horiz-adv-x="794" 
d="M76 0v1475h553v-203h-350v-424h106q54 0 86.5 -1.5t76 -8.5t69.5 -20.5t55 -39t44 -62.5t25.5 -92t10.5 -126v-121q0 -117 -28 -193t-87 -115.5t-131.5 -54t-181.5 -14.5h-248zM279 197h83q59 0 96 13t53.5 39.5t21 51.5t4.5 66v110q0 60 -8.5 95t-31.5 54t-53.5 25
t-85.5 6h-79v-460z" />
    <glyph glyph-name="afii10019" unicode="&#x412;" horiz-adv-x="811" 
d="M76 0v1475h266q108 0 178.5 -14t124.5 -52t78.5 -108.5t24.5 -180.5v-82q0 -262 -187 -274q91 -11 141 -78.5t50 -183.5v-105q0 -74 -9.5 -131t-27 -99t-47 -71.5t-63.5 -48t-83.5 -29t-100 -14.5t-118.5 -4h-227zM279 201h67q113 0 152 43.5t39 161.5v71
q0 109 -39.5 144.5t-130.5 35.5h-88v-456zM279 848h83q175 0 175 170v67q0 113 -40 153t-139 40h-79v-430z" />
    <glyph glyph-name="afii10020" unicode="&#x413;" horiz-adv-x="641" 
d="M76 0v1475h553v-203h-350v-1272h-203z" />
    <glyph glyph-name="afii10021" unicode="&#x414;" horiz-adv-x="946" 
d="M16 199q35 12 60 37q55 55 73 156.5t54 537.5l45 545h561v-1266h100v-506h-192v303h-508v-303h-193v496zM274 209h332v1063h-176l-68 -787q-10 -125 -29 -182.5t-59 -93.5z" />
    <glyph glyph-name="afii10022" unicode="&#x415;" horiz-adv-x="706" 
d="M76 0v1475h573v-209h-370v-402h358v-207h-358v-446h385v-211h-588z" />
    <glyph glyph-name="afii10024" unicode="&#x416;" horiz-adv-x="1003" 
d="M-4 0l211 733l-201 742h199l198 -736v736h197v-736l188 736h199l-190 -742l211 -733h-222l-186 711v-711h-197v711l-186 -711h-221z" />
    <glyph glyph-name="afii10025" unicode="&#x417;" horiz-adv-x="704" 
d="M12 94l121 152q24 -22 38 -33.5t50 -26t76 -14.5q77 0 105 47t28 168v96q0 51 -8 85t-20.5 53t-39.5 28.5t-52.5 12t-71.5 2.5h-58v194h58q52 0 83.5 5.5t58.5 22.5t38.5 51.5t11.5 90.5v88q0 105 -31 150t-106 45q-83 0 -141 -72l-134 131q48 65 113.5 99t175.5 34
q173 0 253.5 -90t80.5 -276v-99q0 -129 -45.5 -195.5t-140.5 -78.5q91 -11 140.5 -78.5t49.5 -183.5v-78q0 -86 -7.5 -149t-29.5 -123t-59.5 -97t-99.5 -59.5t-148 -22.5q-103 0 -177 36.5t-112 84.5z" />
    <glyph glyph-name="afii10026" unicode="&#x418;" horiz-adv-x="815" 
d="M76 0v1475h174v-996l278 996h211v-1475h-174v1012l-280 -1012h-209z" />
    <glyph glyph-name="afii10027" unicode="&#x419;" horiz-adv-x="815" 
d="M76 0h209l280 1012v-1012h174v1475h-211l-278 -996v996h-174v-1475zM162 1860h131q2 -28 5.5 -44.5t14 -35.5t33 -28t57.5 -9q28 0 48.5 7t32 17t18 27t9 31t3.5 35h131q0 -127 -60.5 -198t-181.5 -71t-181 71t-60 198z" />
    <glyph glyph-name="afii10028" unicode="&#x41a;" horiz-adv-x="768" 
d="M76 0v1475h203v-713l260 713h209l-273 -742l297 -733h-235l-258 686v-686h-203z" />
    <glyph glyph-name="afii10029" unicode="&#x41b;" horiz-adv-x="907" 
d="M16 0v162q37 -2 52 -2q49 0 70.5 18t25.5 72l106 1225h561v-1475h-202v1272h-176l-88 -1024q-6 -70 -17 -114t-36.5 -79.5t-71 -51t-115.5 -15.5q-55 0 -109 12z" />
    <glyph glyph-name="afii10030" unicode="&#x41c;" horiz-adv-x="1155" 
d="M76 0v1475h295l209 -1072l208 1072h291v-1475h-186v1133l-227 -1133h-185l-227 1133v-1133h-178z" />
    <glyph glyph-name="afii10031" unicode="&#x41d;" horiz-adv-x="815" 
d="M76 0v1475h203v-611h258v611h202v-1475h-202v657h-258v-657h-203z" />
    <glyph glyph-name="afii10032" unicode="&#x41e;" horiz-adv-x="827" 
d="M70 461v555q0 63 1 96.5t7.5 93.5t18.5 94t37 78t60.5 67.5t91 40.5t126.5 17q72 0 128 -17.5t92 -41.5t61.5 -68.5t37.5 -79.5t18.5 -95t7.5 -93.5t1 -95.5v-547q0 -62 -1 -95.5t-7.5 -94t-18.5 -95t-37.5 -79.5t-61.5 -69t-92 -41.5t-128 -17.5q-71 0 -126.5 17
t-91 40.5t-60.5 67.5t-37 78.5t-18.5 94.5t-7.5 93.5t-1 96.5zM285 444q0 -43 0.5 -64.5t2.5 -56.5t7 -52.5t14.5 -40.5t23.5 -33.5t34.5 -18.5t48.5 -8q27 0 47 8t33.5 18.5t22.5 33t14 40t7 52.5t2.5 56.5t0.5 65.5v592q0 44 -0.5 65.5t-2.5 56.5t-7 52.5t-14 40.5
t-22.5 33.5t-33.5 18.5t-47 8q-28 0 -48.5 -8t-34.5 -19t-23.5 -34t-14.5 -41t-7 -53.5t-2.5 -57.5t-0.5 -66v-588z" />
    <glyph glyph-name="afii10033" unicode="&#x41f;" horiz-adv-x="815" 
d="M76 0v1475h663v-1475h-202v1272h-258v-1272h-203z" />
    <glyph glyph-name="afii10034" unicode="&#x420;" horiz-adv-x="790" 
d="M76 0v1475h266q62 0 108 -3.5t90.5 -13t75 -26t57.5 -43t42.5 -64t24 -88.5t8.5 -117v-194q0 -119 -22.5 -193.5t-74.5 -115t-119.5 -54.5t-175.5 -14h-77v-549h-203zM279 743h83q95 0 135 37.5t40 132.5v172q0 62 -9.5 100t-33 58.5t-54.5 27.5t-82 7h-79v-535z" />
    <glyph glyph-name="afii10035" unicode="&#x421;" horiz-adv-x="714" 
d="M70 424v629q0 82 7 143t28 122t57 99t98.5 62t147.5 24q110 0 175 -34t113 -99l-133 -131q-58 72 -141 72q-75 0 -106 -49t-31 -166v-709q0 -112 29 -163.5t104 -51.5q40 0 76 14.5t50 26t38 33.5l120 -152q-38 -48 -111.5 -84.5t-176.5 -36.5q-86 0 -148 22.5
t-99.5 59.5t-59.5 97t-29.5 123t-7.5 149z" />
    <glyph glyph-name="afii10036" unicode="&#x422;" horiz-adv-x="796" 
d="M18 1272v203h760v-203h-278v-1272h-203v1272h-279z" />
    <glyph glyph-name="afii10037" unicode="&#x423;" horiz-adv-x="821" 
d="M16 1475h224l180 -637l176 637h209l-438 -1475h-217l165 524z" />
    <glyph glyph-name="afii10038" unicode="&#x424;" horiz-adv-x="1026" 
d="M70 637v203q0 47 0.5 75t4 74t9.5 74t18 67t29 63t43.5 50.5t60 41t79.5 24.5t102 10v156h194v-156q56 0 102 -10t79.5 -24.5t60 -41t43.5 -50.5t29 -63t18 -67t9.5 -74t4 -74t0.5 -75v-203q0 -47 -0.5 -75t-4 -74t-9.5 -74t-18 -67t-29 -63t-43.5 -50.5t-60 -41
t-79.5 -24.5t-102 -10v-158h-194v158q-56 0 -102 10t-79.5 24.5t-60 41t-43.5 50.5t-29 63t-18 67t-9.5 74t-4 74t-0.5 75zM276 614q0 -34 0.5 -55.5t2.5 -49.5t6 -45t10.5 -37t17 -31.5t24.5 -22t34 -15t45 -4.5v772q-40 0 -66.5 -13.5t-41 -32.5t-22 -58t-9 -71t-1.5 -89
v-248zM610 354q25 0 45 4.5t34 15t24.5 22t17 31.5t10.5 37t6 45t2.5 49.5t0.5 55.5v248q0 57 -1.5 89t-9 71t-22 58t-41 32.5t-66.5 13.5v-772z" />
    <glyph glyph-name="afii10039" unicode="&#x425;" horiz-adv-x="825" 
d="M16 0l283 754l-258 721h231l146 -496l147 496h211l-246 -719l279 -756h-229l-174 520l-173 -520h-217z" />
    <glyph glyph-name="afii10040" unicode="&#x426;" horiz-adv-x="876" 
d="M76 0v1475h203v-1272h258v1272h202v-1272h101v-500h-193v297h-571z" />
    <glyph glyph-name="afii10041" unicode="&#x427;" horiz-adv-x="782" 
d="M43 909v566h203v-531q0 -35 3.5 -59t14.5 -47.5t34 -35t58 -11.5q43 0 83 19t65 42v623h203v-1475h-203v670q-35 -32 -91.5 -55t-113.5 -23q-256 0 -256 317z" />
    <glyph glyph-name="afii10042" unicode="&#x428;" horiz-adv-x="1155" 
d="M76 0v1475h203v-1272h196v1272h203v-1272h199v1272h202v-1475h-1003z" />
    <glyph glyph-name="afii10043" unicode="&#x429;" horiz-adv-x="1216" 
d="M76 0v1475h203v-1272h196v1272h203v-1272h199v1272h202v-1272h101v-500h-193v297h-911z" />
    <glyph glyph-name="afii10044" unicode="&#x42a;" horiz-adv-x="1105" 
d="M37 1272v203h553v-627h106q54 0 86.5 -1.5t76 -8.5t69.5 -20.5t55 -39t44 -62.5t25.5 -92t10.5 -126v-121q0 -117 -28 -193t-87 -115.5t-131.5 -54t-181.5 -14.5h-248v1272h-350zM590 197h84q48 0 81 9.5t51 23.5t28 38.5t12 45.5t2 53v110q0 60 -8 95t-31 54t-53.5 25
t-85.5 6h-80v-460z" />
    <glyph glyph-name="afii10045" unicode="&#x42b;" horiz-adv-x="1169" 
d="M76 0v1475h203v-627h106q54 0 86.5 -1.5t76 -8.5t69.5 -20.5t55 -39t44 -62.5t25.5 -92t10.5 -126v-121q0 -117 -28 -193t-87 -115.5t-131.5 -54t-181.5 -14.5h-248zM279 197h83q59 0 96 13t53.5 39.5t21 51.5t4.5 66v110q0 60 -8.5 95t-31.5 54t-53.5 25t-85.5 6h-79
v-460zM891 0v1475h203v-1475h-203z" />
    <glyph glyph-name="afii10046" unicode="&#x42c;" horiz-adv-x="794" 
d="M76 0v1475h203v-627h106q54 0 86.5 -1.5t76 -8.5t69.5 -20.5t55 -39t44 -62.5t25.5 -92t10.5 -126v-121q0 -117 -28 -193t-87 -115.5t-131.5 -54t-181.5 -14.5h-248zM279 197h83q59 0 96 13t53.5 39.5t21 51.5t4.5 66v110q0 60 -8.5 95t-31.5 54t-53.5 25t-85.5 6h-79
v-460z" />
    <glyph glyph-name="afii10047" unicode="&#x42d;" horiz-adv-x="714" 
d="M12 94l121 152q24 -22 38 -33.5t50 -26t76 -14.5q77 0 105 47t28 168v270h-258v207h258v232q0 117 -31 166t-106 49q-83 0 -141 -72l-134 131q48 65 113.5 99t175.5 34q85 0 147.5 -24t98.5 -62t57 -99t28 -122t7 -143v-629q0 -86 -7.5 -149t-29.5 -123t-59.5 -97
t-99.5 -59.5t-148 -22.5q-103 0 -177 36.5t-112 84.5z" />
    <glyph glyph-name="afii10048" unicode="&#x42e;" horiz-adv-x="1294" 
d="M76 0v1475h203v-611h258v152q0 63 1 96.5t7.5 93.5t18.5 94t37 78t60.5 67.5t91 40.5t126.5 17q72 0 128 -17.5t92 -41.5t61.5 -68.5t37.5 -79.5t18.5 -95t7.5 -93.5t1 -95.5v-547q0 -62 -1 -95.5t-7.5 -94t-18.5 -95t-37.5 -79.5t-61.5 -69t-92 -41.5t-128 -17.5
q-71 0 -126.5 17t-91 40.5t-60.5 67.5t-37 78.5t-18.5 94.5t-7.5 93.5t-1 96.5v196h-258v-657h-203zM752 444q0 -43 0.5 -64.5t2.5 -56.5t7 -52.5t14.5 -40.5t23.5 -33.5t34.5 -18.5t48.5 -8q27 0 47 8t33.5 18.5t22.5 33t14 40t7 52.5t2.5 56.5t0.5 65.5v592
q0 44 -0.5 65.5t-2.5 56.5t-7 52.5t-14 40.5t-22.5 33.5t-33.5 18.5t-47 8q-28 0 -48.5 -8t-34.5 -19t-23.5 -34t-14.5 -41t-7 -53.5t-2.5 -57.5t-0.5 -66v-588z" />
    <glyph glyph-name="afii10049" unicode="&#x42f;" horiz-adv-x="763" 
d="M20 0l60 436q22 166 45 223t92 76q-91 21 -125.5 78t-34.5 193v122q0 69 13 123.5t32.5 90.5t52 62t63 39.5t74.5 21t76 9t78 1.5h242v-1475h-203v608h-75q-28 0 -45 -3t-32.5 -16t-24 -30.5t-18 -56.5t-15.5 -83t-15 -120l-37 -299h-203zM264 1016q0 -56 4.5 -89.5
t15.5 -59.5t35 -38t58.5 -18t89.5 -6h18v475h-45q-106 0 -141 -32.5t-35 -137.5v-94z" />
    <glyph glyph-name="afii10065" unicode="&#x430;" horiz-adv-x="684" 
d="M51 252v86q0 156 57 230.5t193 74.5q33 0 62.5 -4t42.5 -8l14 -4v102q0 83 -22.5 108t-96.5 25q-68 0 -166 -41l-67 154q112 72 270 72q53 0 90 -5.5t74.5 -24t60.5 -50.5t37 -88t14 -134v-745h-145l-20 92q-85 -110 -195 -110q-107 0 -155 59t-48 211zM240 281
q0 -70 17 -93.5t60 -23.5q25 0 53.5 16t49.5 45v250q-29 17 -64 17q-65 0 -90.5 -40t-25.5 -135v-36z" />
    <glyph glyph-name="afii10066" unicode="&#x431;" horiz-adv-x="706" 
d="M70 334v659q0 106 15 178t53.5 126.5t105 83.5t168.5 40q53 6 65.5 19t18.5 63h139q-2 -59 -13 -100t-25.5 -64.5t-41 -38.5t-48 -21t-58.5 -14q-8 -1 -13.5 -2.5t-11.5 -2.5q-43 -9 -70.5 -23.5t-44.5 -33.5t-25.5 -54t-11 -73.5t-2.5 -104.5q22 31 69 53.5t103 22.5
q106 0 157.5 -63.5t51.5 -231.5v-418q0 -189 -69 -275t-222 -86t-221.5 87t-68.5 274zM270 315q0 -86 18.5 -125.5t71.5 -39.5q58 0 74.5 38.5t16.5 126.5v437q0 116 -84 116q-55 0 -97 -57v-496z" />
    <glyph glyph-name="afii10067" unicode="&#x432;" horiz-adv-x="669" 
d="M70 0v1022h256q64 0 106 -5t80.5 -20t59.5 -42.5t33.5 -72.5t12.5 -110v-61q0 -80 -22 -124.5t-86 -58.5q117 -27 117 -172v-82q0 -87 -16.5 -141t-55 -83.5t-88.5 -39.5t-129 -10h-268zM258 160h76q60 0 82 19t22 79v96q0 60 -21.5 77.5t-70.5 17.5h-88v-289zM258 596
h86q88 0 88 76v100q0 58 -19.5 75t-70.5 17h-84v-268z" />
    <glyph glyph-name="afii10068" unicode="&#x433;" horiz-adv-x="565" 
d="M70 0v1022h467v-182h-273v-840h-194z" />
    <glyph glyph-name="afii10069" unicode="&#x434;" horiz-adv-x="782" 
d="M29 170q31 17 47.5 36t29 62t17.5 117l43 637h498v-840h90v-387h-174v211h-377v-211h-174v375zM258 182h211v666h-133l-29 -453q-7 -109 -17 -149.5t-32 -63.5z" />
    <glyph glyph-name="afii10070" unicode="&#x435;" horiz-adv-x="706" 
d="M57 354v332q0 187 68.5 274t222.5 87q46 0 84 -8t66 -20.5t50 -35t37 -44t25 -54.5t16 -60.5t9 -68t3.5 -70.5t0.5 -74v-141h-383v-68q0 -147 26 -197t115 -50q82 0 131 65l121 -121q-90 -127 -280 -127q-174 0 -243 93t-69 288zM258 629h182q-1 58 -1.5 86t-3.5 62.5
t-8.5 47.5t-16 27.5t-25.5 18t-37 3.5q-61 0 -75.5 -47t-14.5 -198z" />
    <glyph glyph-name="afii10072" unicode="&#x436;" horiz-adv-x="952" 
d="M12 0l193 514l-182 508h186l178 -508v508h178v-508l168 508h187l-172 -508l192 -514h-201l-174 492v-492h-178v492l-174 -492h-201z" />
    <glyph glyph-name="afii10073" unicode="&#x437;" horiz-adv-x="608" 
d="M18 102l115 115q63 -72 129 -72q50 0 76.5 22.5t26.5 80.5v90q0 57 -21 77.5t-74 20.5h-90v166h88q57 0 72.5 21.5t15.5 76.5v80q0 57 -20.5 77t-59.5 20q-59 0 -112 -70l-133 108q75 132 250 132q73 0 126 -21t81.5 -58.5t41.5 -81.5t13 -98v-77q0 -79 -23.5 -124
t-87.5 -59q62 -14 90.5 -61t28.5 -111v-67q0 -70 -12.5 -123.5t-42.5 -97.5t-85 -67.5t-135 -23.5q-174 0 -258 125z" />
    <glyph glyph-name="afii10074" unicode="&#x438;" horiz-adv-x="677" 
d="M70 0v1022h153v-651l193 651h192v-1022h-157v651l-193 -651h-188z" />
    <glyph glyph-name="afii10075" unicode="&#x439;" horiz-adv-x="677" 
d="M70 0h188l193 651v-651h157v1022h-192l-193 -651v651h-153v-1022zM96 1393h131q1 -21 3.5 -35t9 -31t18 -27t32 -17t48.5 -7t48.5 7t32 17t18 27t9 31t3.5 35h131q0 -127 -60.5 -198t-181.5 -71t-181.5 71t-60.5 198z" />
    <glyph glyph-name="afii10076" unicode="&#x43a;" horiz-adv-x="624" 
d="M70 0v1022h194v-485l160 485h192l-172 -508l181 -514h-207l-154 469v-469h-194z" />
    <glyph glyph-name="afii10077" unicode="&#x43b;" horiz-adv-x="733" 
d="M18 2v141q36 -4 50 -4q36 0 49 13t14 63l35 807h498v-1022h-195v848h-133l-29 -684q-2 -54 -16.5 -90.5t-40.5 -54.5t-55 -24.5t-70 -6.5q-51 0 -107 14z" />
    <glyph glyph-name="afii10078" unicode="&#x43c;" horiz-adv-x="1009" 
d="M70 0v1022h270l164 -686l166 686h270v-1022h-176v791l-193 -791h-141l-188 791v-791h-172z" />
    <glyph glyph-name="afii10079" unicode="&#x43d;" horiz-adv-x="681" 
d="M70 0v1022h194v-397h154v397h194v-1022h-194v455h-154v-455h-194z" />
    <glyph glyph-name="afii10080" unicode="&#x43e;" horiz-adv-x="692" 
d="M55 334v352q0 187 68.5 274t222.5 87q153 0 222 -86t69 -275v-352q0 -189 -69 -275t-222 -86q-154 0 -222.5 87t-68.5 274zM256 315q0 -86 18.5 -125.5t71.5 -39.5q25 0 41.5 8t26.5 20t14.5 35.5t6 45t1.5 56.5v394q0 35 -1.5 56.5t-6 45t-14.5 35.5t-26.5 20t-41.5 8
q-53 0 -71.5 -39.5t-18.5 -125.5v-394z" />
    <glyph glyph-name="afii10081" unicode="&#x43f;" horiz-adv-x="681" 
d="M70 0v1022h542v-1022h-194v848h-154v-848h-194z" />
    <glyph glyph-name="afii10082" unicode="&#x440;" horiz-adv-x="700" 
d="M70 -338v1360h137l18 -90q92 115 209 115q52 0 88.5 -13t65.5 -45.5t43 -91t14 -145.5v-449q0 -59 -5 -102.5t-19 -85t-38 -67.5t-64 -42t-95 -16q-90 0 -160 73v-401h-194zM264 236q21 -29 49.5 -45.5t53.5 -16.5q43 0 60 23.5t17 93.5v461q0 116 -84 116q-54 0 -96 -57
v-575z" />
    <glyph glyph-name="afii10083" unicode="&#x441;" horiz-adv-x="628" 
d="M57 334v342q0 70 6.5 121t25.5 100.5t52 80.5t88.5 50t132.5 19q175 0 250 -132l-141 -116q-41 67 -104 67q-29 0 -49 -10.5t-31.5 -27t-18 -45t-8.5 -57t-2 -71.5v-245q0 -107 11.5 -160.5t37 -73.5t76.5 -20q62 0 111 65l122 -123q-84 -125 -258 -125
q-162 0 -231.5 86.5t-69.5 274.5z" />
    <glyph glyph-name="afii10084" unicode="&#x442;" horiz-adv-x="641" 
d="M29 840v182h583v-182h-194v-840h-195v840h-194z" />
    <glyph glyph-name="afii10085" unicode="&#x443;" horiz-adv-x="673" 
d="M12 1022h205l127 -674l123 674h195l-234 -983q-20 -83 -36 -136t-39 -103.5t-50.5 -78t-66.5 -43.5t-91 -16q-66 0 -98 8v162q23 -2 47 -2q71 0 97.5 42.5t52.5 178.5z" />
    <glyph glyph-name="afii10086" unicode="&#x444;" horiz-adv-x="1064" 
d="M55 303v412q0 173 52.5 252.5t166.5 79.5q108 0 162 -78v506h195v-506q70 78 170 78q106 0 157.5 -63.5t51.5 -231.5v-449q0 -75 -8 -126t-30.5 -96.5t-67.5 -68t-113 -22.5q-90 0 -160 73v-401h-195v399q-27 -36 -73 -57.5t-99 -21.5q-119 0 -164 78.5t-45 242.5z
M256 281q0 -69 17.5 -93t60.5 -24q25 0 53 16t49 45v586q-42 57 -96 57q-84 0 -84 -116v-471zM631 236q46 -62 102 -62q43 0 60.5 24t17.5 93v461q0 116 -84 116q-54 0 -96 -57v-575z" />
    <glyph glyph-name="afii10087" unicode="&#x445;" horiz-adv-x="626" 
d="M-4 0l213 522l-199 500h205l102 -313l109 313h190l-200 -496l215 -526h-203l-121 342l-114 -342h-197z" />
    <glyph glyph-name="afii10088" unicode="&#x446;" horiz-adv-x="731" 
d="M70 0v1022h194v-846h154v846h194v-846h90v-381h-174v205h-458z" />
    <glyph glyph-name="afii10089" unicode="&#x447;" horiz-adv-x="681" 
d="M70 625v397h194v-365q0 -61 14.5 -82.5t51.5 -21.5q47 0 88 37v432h194v-1022h-186v440q-68 -75 -170 -75q-50 0 -86 15.5t-55 37.5t-29.5 59.5t-13 69t-2.5 78.5z" />
    <glyph glyph-name="afii10090" unicode="&#x448;" horiz-adv-x="1030" 
d="M70 0v1022h194v-846h154v846h194v-846h154v846h195v-1022h-891z" />
    <glyph glyph-name="afii10091" unicode="&#x449;" horiz-adv-x="1079" 
d="M70 0v1022h194v-846h154v846h194v-846h154v846h195v-846h90v-381h-174v205h-807z" />
    <glyph glyph-name="afii10092" unicode="&#x44a;" horiz-adv-x="827" 
d="M29 852v170h389v-399h84q39 0 62.5 -1t56 -6.5t51.5 -15.5t40.5 -28.5t33 -46t19 -68t7.5 -92.5v-91q0 -87 -16.5 -141t-55 -83.5t-88.5 -39.5t-129 -10h-260v852h-194zM418 160h71q48 0 68.5 18.5t20.5 65.5v131q0 56 -19 73t-72 17h-69v-305z" />
    <glyph glyph-name="afii10093" unicode="&#x44b;" horiz-adv-x="985" 
d="M70 0v1022h194v-399h84q39 0 62.5 -1t56 -6.5t51.5 -15.5t40.5 -28.5t33 -46t19 -68t7.5 -92.5v-91q0 -87 -16.5 -141t-54.5 -83.5t-88 -39.5t-129 -10h-260zM264 160h72q48 0 68 18.5t20 65.5v131q0 56 -18.5 73t-71.5 17h-70v-305zM721 0v1022h194v-1022h-194z" />
    <glyph glyph-name="afii10094" unicode="&#x44c;" horiz-adv-x="673" 
d="M70 0v1022h194v-399h84q39 0 62.5 -1t56 -6.5t51.5 -15.5t40.5 -28.5t33 -46t19 -68t7.5 -92.5v-91q0 -87 -16.5 -141t-54.5 -83.5t-88 -39.5t-129 -10h-260zM264 160h72q48 0 68 18.5t20 65.5v131q0 56 -18.5 73t-71.5 17h-70v-305z" />
    <glyph glyph-name="afii10095" unicode="&#x44d;" horiz-adv-x="608" 
d="M18 102l121 121q28 -31 55.5 -49t67.5 -18q49 0 76 22.5t27 79.5v172h-185v178h185v160q0 98 -89 98q-63 0 -104 -67l-141 116q75 132 250 132q73 0 127.5 -22.5t84.5 -61t44 -84.5t14 -99v-491q0 -70 -12.5 -123.5t-42.5 -97.5t-85 -67.5t-135 -23.5q-174 0 -258 125z
" />
    <glyph glyph-name="afii10096" unicode="&#x44e;" horiz-adv-x="1054" 
d="M70 0v1022h194v-397h154v61q0 187 68.5 274t222.5 87q153 0 221.5 -85.5t68.5 -275.5v-352q0 -190 -68.5 -275.5t-221.5 -85.5q-154 0 -222.5 87t-68.5 274v121h-154v-455h-194zM618 315q0 -85 18.5 -125t72.5 -40q25 0 41.5 8t26.5 20t14.5 35.5t6 45t1.5 56.5v394
q0 35 -1.5 56.5t-6 45t-14.5 35.5t-26.5 20t-41.5 8q-54 0 -72.5 -40t-18.5 -125v-394z" />
    <glyph glyph-name="afii10097" unicode="&#x44f;" horiz-adv-x="665" 
d="M37 0l39 317q10 84 29 125t69 64q-71 21 -95 64.5t-24 136.5v61q0 81 19 133t59 78t85.5 34.5t115.5 8.5h262v-1022h-188v416h-72q-29 0 -41.5 -10t-22.5 -48.5t-20 -130.5l-27 -227h-188zM238 698q0 -81 21 -105t101 -24h48v295h-62q-67 0 -87.5 -19t-20.5 -83v-64z" />
    <glyph glyph-name="uni0450" unicode="&#x450;" horiz-adv-x="706" 
d="M57 354v332q0 187 68.5 274t222.5 87q46 0 84 -8t66 -20.5t50 -35t37 -44t25 -54.5t16 -60.5t9 -68t3.5 -70.5t0.5 -74v-141h-383v-68q0 -147 26 -197t115 -50q82 0 131 65l121 -121q-90 -127 -280 -127q-174 0 -243 93t-69 288zM166 1280l110 178l267 -235l-72 -105z
M258 629h182q-1 58 -1.5 86t-3.5 62.5t-8.5 47.5t-16 27.5t-25.5 18t-37 3.5q-61 0 -75.5 -47t-14.5 -198z" />
    <glyph glyph-name="afii10071" unicode="&#x451;" horiz-adv-x="706" 
d="M57 354v332q0 187 68.5 274t222.5 87q46 0 84 -8t66 -20.5t50 -35t37 -44t25 -54.5t16 -60.5t9 -68t3.5 -70.5t0.5 -74v-141h-383v-68q0 -147 26 -197t115 -50q82 0 131 65l121 -121q-90 -127 -280 -127q-174 0 -243 93t-69 288zM86 1264q0 52 32.5 85t82.5 33
q47 0 79.5 -33t32.5 -79q0 -50 -32 -82.5t-80 -32.5q-51 0 -83 30.5t-32 78.5zM258 629h182q-1 58 -1.5 86t-3.5 62.5t-8.5 47.5t-16 27.5t-25.5 18t-37 3.5q-61 0 -75.5 -47t-14.5 -198zM387 1264q0 52 32.5 85t82.5 33q47 0 79.5 -33t32.5 -79q0 -50 -32 -82.5t-80 -32.5
q-51 0 -83 30.5t-32 78.5z" />
    <glyph glyph-name="afii10099" unicode="&#x452;" horiz-adv-x="669" 
d="M-43 1184v147h113v144h194v-144h156v-147h-156v-226q32 39 79 64t95 25q31 0 55 -5t42 -16.5t31 -24.5t21.5 -35t13.5 -42t7.5 -51.5t3 -57t0.5 -65.5v-734q0 -67 -4 -113.5t-18 -95.5t-39.5 -78t-70.5 -48t-109 -19q-72 0 -131 16v162q38 -6 79 -6q62 0 80.5 34.5
t18.5 129.5v715q0 78 -13.5 101.5t-50.5 23.5q-43 0 -90 -41v-797h-194v1184h-113z" />
    <glyph glyph-name="afii10100" unicode="&#x453;" horiz-adv-x="565" 
d="M70 0v1022h467v-182h-273v-840h-194zM129 1223l266 235l111 -178l-305 -162z" />
    <glyph glyph-name="afii10101" unicode="&#x454;" horiz-adv-x="628" 
d="M57 334v342q0 70 6.5 121t25.5 100.5t52 80.5t88.5 50t132.5 19q175 0 250 -132l-141 -116q-41 67 -104 67q-29 0 -49 -10.5t-31.5 -27t-18 -45t-8.5 -57t-2 -71.5v-47h213v-178h-213v-20q0 -107 11.5 -160.5t37 -73.5t76.5 -20q62 0 111 65l122 -123q-84 -125 -258 -125
q-162 0 -231.5 86.5t-69.5 274.5z" />
    <glyph glyph-name="afii10102" unicode="&#x455;" horiz-adv-x="593" 
d="M25 82l106 133l8 -7q8 -7 10 -9t10.5 -8t13 -9t13.5 -8t17 -7.5t18 -5.5t20.5 -4t22.5 -1q55 0 82 28.5t27 91.5q0 42 -23.5 76t-58 56t-75.5 51.5t-75.5 60.5t-58 85.5t-23.5 123.5q0 141 72 229.5t205 88.5q53 0 94.5 -9.5t69 -28.5t39.5 -30.5t30 -32.5l-108 -127
l-11 11q-12 10 -15.5 12.5t-15 10t-20 10.5t-22 6t-27.5 3q-100 0 -100 -120q0 -39 17.5 -70t45.5 -53t61.5 -43t67.5 -46.5t62 -56.5t45.5 -79.5t17.5 -110.5q0 -160 -79 -238t-218 -78q-164 0 -245 105z" />
    <glyph glyph-name="afii10103" unicode="&#x456;" horiz-adv-x="342" 
d="M57 1264q0 52 32.5 85t82.5 33q47 0 80 -33t33 -79q0 -50 -32.5 -82.5t-80.5 -32.5q-51 0 -83 30.5t-32 78.5zM74 0v1022h194v-1022h-194z" />
    <glyph glyph-name="afii10104" unicode="&#x457;" horiz-adv-x="342" 
d="M-92 1264q0 52 32.5 85t82.5 33q47 0 79.5 -33t32.5 -79q0 -50 -32 -82.5t-80 -32.5q-51 0 -83 30.5t-32 78.5zM74 0v1022h194v-1022h-194zM209 1264q0 52 32.5 85t82.5 33q47 0 79.5 -33t32.5 -79q0 -50 -32 -82.5t-80 -32.5q-51 0 -83 30.5t-32 78.5z" />
    <glyph glyph-name="afii10105" unicode="&#x458;" horiz-adv-x="342" 
d="M-104 -160q38 -6 79 -6q62 0 80.5 34.5t18.5 129.5v1024h194v-1006q0 -67 -4 -113.5t-18 -95.5t-39.5 -78t-70.5 -48t-109 -19q-72 0 -131 16v162zM57 1264q0 52 32.5 85t82.5 33q47 0 80 -33t33 -79q0 -50 -32.5 -82.5t-80.5 -32.5q-51 0 -83 30.5t-32 78.5z" />
    <glyph glyph-name="afii10106" unicode="&#x459;" horiz-adv-x="1073" 
d="M18 2v141q36 -4 50 -4q36 0 49 13t14 63l35 807h498v-399h84q39 0 62.5 -1t56 -6.5t51.5 -15.5t40.5 -28.5t33 -46t19 -68t7.5 -92.5v-91q0 -87 -16.5 -141t-55 -83.5t-88.5 -39.5t-129 -10h-260v848h-133l-29 -684q-2 -54 -16.5 -90.5t-40.5 -54.5t-55 -24.5t-70 -6.5
q-51 0 -107 14zM664 160h71q48 0 68 18.5t20 65.5v131q0 56 -18.5 73t-71.5 17h-69v-305z" />
    <glyph glyph-name="afii10107" unicode="&#x45a;" horiz-adv-x="1021" 
d="M70 0v1022h194v-397h154v397h194v-399h84q39 0 63 -1t56 -6.5t51 -15.5t41 -28.5t33.5 -46t19 -68t7.5 -92.5v-91q0 -87 -16.5 -141t-55 -83.5t-88.5 -39.5t-129 -10h-260v455h-154v-455h-194zM612 160h72q48 0 68 18.5t20 65.5v131q0 56 -18.5 73t-71.5 17h-70v-305z
" />
    <glyph glyph-name="afii10108" unicode="&#x45b;" horiz-adv-x="681" 
d="M-43 1184v147h113v144h194v-144h156v-147h-156v-226q32 39 79 64t95 25q31 0 55 -5t42 -16.5t31 -24.5t21.5 -35t13.5 -42t7.5 -51.5t3 -57t0.5 -65.5v-750h-194v713q0 78 -13.5 101.5t-50.5 23.5q-43 0 -90 -41v-797h-194v1184h-113z" />
    <glyph glyph-name="afii10109" unicode="&#x45c;" horiz-adv-x="624" 
d="M70 0v1022h194v-485l160 485h192l-172 -508l181 -514h-207l-154 469v-469h-194zM160 1223l266 235l111 -178l-306 -162z" />
    <glyph glyph-name="uni045D" unicode="&#x45d;" horiz-adv-x="677" 
d="M70 0h188l193 651v-651h157v1022h-192l-193 -651v651h-153v-1022zM150 1280l110 178l266 -235l-71 -105z" />
    <glyph glyph-name="afii10110" unicode="&#x45e;" horiz-adv-x="673" 
d="M12 1022h205l127 -674l123 674h195l-234 -983q-20 -83 -36 -136t-39 -103.5t-50.5 -78t-66.5 -43.5t-91 -16q-66 0 -98 8v162q23 -2 47 -2q71 0 97.5 42.5t52.5 178.5zM94 1393h131q1 -21 3.5 -35t9 -31t18 -27t32 -17t48.5 -7q35 0 57.5 9t33 28t14 35.5t5.5 44.5h132
q0 -127 -60.5 -198t-181.5 -71t-181.5 71t-60.5 198z" />
    <glyph glyph-name="afii10193" unicode="&#x45f;" horiz-adv-x="681" 
d="M70 0v1022h194v-846h154v846h194v-1022h-184v-205h-174v205h-184z" />
    <glyph glyph-name="afii10146" unicode="&#x462;" horiz-adv-x="1013" 
d="M37 1090v182h258v203h203v-203h258v-182h-258v-242h106q54 0 86.5 -1.5t76 -8.5t69.5 -20.5t55 -39t44 -62.5t25.5 -92t10.5 -126v-121q0 -117 -28 -193t-87 -115.5t-131.5 -54t-181.5 -14.5h-248v1090h-258zM498 197h84q48 0 81 9.5t51 23.5t28 38.5t12 45.5t2 53v110
q0 60 -8 95t-31 54t-53.5 25t-85.5 6h-80v-460z" />
    <glyph glyph-name="afii10194" unicode="&#x463;" horiz-adv-x="745" 
d="M29 731v148h112v143h195v-143h156v-148h-156v-108h84q39 0 62.5 -1t56 -6.5t51.5 -15.5t40.5 -28.5t33 -46t19 -68t7.5 -92.5v-91q0 -87 -16.5 -141t-55 -83.5t-88.5 -39.5t-129 -10h-260v731h-112zM336 160h72q48 0 68 18.5t20 65.5v131q0 56 -18.5 73t-71.5 17h-70
v-305z" />
    <glyph glyph-name="afii10147" unicode="&#x472;" horiz-adv-x="827" 
d="M70 461v555q0 63 1 96.5t7.5 93.5t18.5 94t37 78t60.5 67.5t91 40.5t126.5 17q72 0 128 -17.5t92 -41.5t61.5 -68.5t37.5 -79.5t18.5 -95t7.5 -93.5t1 -95.5v-547q0 -62 -1 -95.5t-7.5 -94t-18.5 -95t-37.5 -79.5t-61.5 -69t-92 -41.5t-128 -17.5q-71 0 -126.5 17
t-91 40.5t-60.5 67.5t-37 78.5t-18.5 94.5t-7.5 93.5t-1 96.5zM285 444q0 -43 0.5 -64.5t2.5 -56.5t7 -52.5t14.5 -40.5t23.5 -33.5t34.5 -18.5t48.5 -8q27 0 47 8t33.5 18.5t22.5 33t14 40t7 52.5t2.5 56.5t0.5 65.5v220h-258v-220zM285 858h258v178q0 44 -0.5 65.5
t-2.5 56.5t-7 52.5t-14 40.5t-22.5 33.5t-33.5 18.5t-47 8q-28 0 -48.5 -8t-34.5 -19t-23.5 -34t-14.5 -41t-7 -53.5t-2.5 -57.5t-0.5 -66v-174z" />
    <glyph glyph-name="afii10195" unicode="&#x473;" horiz-adv-x="692" 
d="M55 334v352q0 187 68.5 274t222.5 87q153 0 222 -86t69 -275v-352q0 -189 -69 -275t-222 -86q-154 0 -222.5 87t-68.5 274zM256 315q0 -86 18.5 -125.5t71.5 -39.5q25 0 41.5 8t26.5 20t14.5 35.5t6 45t1.5 56.5v119h-180v-119zM256 604h180v105q0 35 -1.5 56.5t-6 45
t-14.5 35.5t-26.5 20t-41.5 8q-53 0 -71.5 -39.5t-18.5 -125.5v-105z" />
    <glyph glyph-name="afii10148" unicode="&#x474;" horiz-adv-x="882" 
d="M16 1475h217l191 -1117l149 842q18 95 36.5 150t50 90t73.5 47t111 12q25 0 39 -4v-162q-60 -1 -82 -30.5t-37 -108.5l-221 -1194h-246z" />
    <glyph glyph-name="afii10196" unicode="&#x475;" horiz-adv-x="692" 
d="M10 1022h205l107 -737l75 485q11 71 23.5 113.5t37 81t64.5 55t101 16.5q41 0 59 -4v-139q-47 0 -65 -23t-31 -84l-156 -786h-231z" />
    <glyph glyph-name="afii10050" unicode="&#x490;" horiz-adv-x="647" 
d="M76 0v1475h360v245h193v-448h-350v-1272h-203z" />
    <glyph glyph-name="afii10098" unicode="&#x491;" horiz-adv-x="565" 
d="M70 0v1022h292v205h175v-387h-273v-840h-194z" />
    <glyph glyph-name="Wgrave" unicode="&#x1e80;" horiz-adv-x="1284" 
d="M27 1475h217l135 -996l172 996h190l172 -996l136 996h208l-235 -1475h-207l-172 1001l-172 -1001h-205zM467 1704l111 178l266 -235l-72 -105z" />
    <glyph glyph-name="wgrave" unicode="&#x1e81;" horiz-adv-x="997" 
d="M16 1022h195l90 -717l123 717h158l125 -717l86 717h188l-164 -1022h-211l-106 594l-107 -594h-211zM311 1280l111 178l266 -235l-72 -105z" />
    <glyph glyph-name="Wacute" unicode="&#x1e82;" horiz-adv-x="1284" 
d="M27 1475h217l135 -996l172 996h190l172 -996l136 996h208l-235 -1475h-207l-172 1001l-172 -1001h-205zM442 1647l267 235l110 -178l-305 -162z" />
    <glyph glyph-name="wacute" unicode="&#x1e83;" horiz-adv-x="997" 
d="M16 1022h195l90 -717l123 717h158l125 -717l86 717h188l-164 -1022h-211l-106 594l-107 -594h-211zM311 1223l267 235l110 -178l-305 -162z" />
    <glyph glyph-name="Wdieresis" unicode="&#x1e84;" horiz-adv-x="1284" 
d="M27 1475h217l135 -996l172 996h190l172 -996l136 996h208l-235 -1475h-207l-172 1001l-172 -1001h-205zM342 1712q0 50 34.5 85.5t86.5 35.5t86.5 -35.5t34.5 -85.5q0 -55 -34 -90t-87 -35t-87 35t-34 90zM705 1712q0 50 34 85.5t86 35.5t86.5 -35.5t34.5 -85.5
q0 -55 -34 -90t-87 -35t-86.5 35t-33.5 90z" />
    <glyph glyph-name="wdieresis" unicode="&#x1e85;" horiz-adv-x="997" 
d="M16 1022h195l90 -717l123 717h158l125 -717l86 717h188l-164 -1022h-211l-106 594l-107 -594h-211zM236 1264q0 52 32 85t82 33q47 0 80 -33t33 -79q0 -50 -32.5 -82.5t-80.5 -32.5q-51 0 -82.5 30.5t-31.5 78.5zM537 1264q0 52 32 85t82 33q47 0 80 -33t33 -79
q0 -50 -32.5 -82.5t-80.5 -32.5q-51 0 -82.5 30.5t-31.5 78.5z" />
    <glyph glyph-name="Ygrave" unicode="&#x1ef2;" horiz-adv-x="821" 
d="M16 1475h224l178 -590l178 590h209l-293 -859v-616h-203v616zM242 1704l110 178l266 -235l-71 -105z" />
    <glyph glyph-name="ygrave" unicode="&#x1ef3;" horiz-adv-x="673" 
d="M12 1022h205l127 -674l123 674h195l-234 -983q-20 -83 -36 -136t-39 -103.5t-50.5 -78t-66.5 -43.5t-91 -16q-66 0 -98 8v162q23 -2 47 -2q71 0 97.5 42.5t52.5 178.5zM147 1280l111 178l266 -235l-71 -105z" />
    <glyph glyph-name="uni2000" unicode="&#x2000;" horiz-adv-x="1168" 
 />
    <glyph glyph-name="uni2001" unicode="&#x2001;" horiz-adv-x="2337" 
 />
    <glyph glyph-name="uni2002" unicode="&#x2002;" horiz-adv-x="1168" 
 />
    <glyph glyph-name="uni2003" unicode="&#x2003;" horiz-adv-x="2337" 
 />
    <glyph glyph-name="uni2004" unicode="&#x2004;" horiz-adv-x="779" 
 />
    <glyph glyph-name="uni2005" unicode="&#x2005;" horiz-adv-x="584" 
 />
    <glyph glyph-name="uni2006" unicode="&#x2006;" horiz-adv-x="389" 
 />
    <glyph glyph-name="uni2007" unicode="&#x2007;" horiz-adv-x="389" 
 />
    <glyph glyph-name="uni2008" unicode="&#x2008;" horiz-adv-x="292" 
 />
    <glyph glyph-name="uni2009" unicode="&#x2009;" horiz-adv-x="467" 
 />
    <glyph glyph-name="uni200A" unicode="&#x200a;" horiz-adv-x="129" 
 />
    <glyph glyph-name="uni2010" unicode="&#x2010;" horiz-adv-x="503" 
d="M29 473v182h446v-182h-446z" />
    <glyph glyph-name="uni2011" unicode="&#x2011;" horiz-adv-x="503" 
d="M29 473v182h446v-182h-446z" />
    <glyph glyph-name="figuredash" unicode="&#x2012;" horiz-adv-x="757" 
d="M33 621v190h692v-190h-692z" />
    <glyph glyph-name="endash" unicode="&#x2013;" horiz-adv-x="600" 
d="M29 461v207h542v-207h-542z" />
    <glyph glyph-name="emdash" unicode="&#x2014;" horiz-adv-x="1288" 
d="M29 461v207h1231v-207h-1231z" />
    <glyph glyph-name="afii00208" unicode="&#x2015;" horiz-adv-x="1288" 
d="M29 461v207h1231v-207h-1231z" />
    <glyph glyph-name="quoteleft" unicode="&#x2018;" horiz-adv-x="333" 
d="M-31 956v95q0 88 24 171t84.5 160.5t149.5 120.5l97 -127q-82 -58 -108 -140t-26 -218v-62h-221z" />
    <glyph glyph-name="quoteright" unicode="&#x2019;" horiz-adv-x="333" 
d="M10 1055q82 58 107.5 140t25.5 218v62h222v-95q0 -65 -14.5 -128.5t-44 -125t-81 -114t-119.5 -84.5z" />
    <glyph glyph-name="quotesinglbase" unicode="&#x201a;" horiz-adv-x="354" 
d="M-12 -174q82 58 107.5 140t25.5 218v62h221v-94q0 -65 -14.5 -129t-43.5 -125.5t-80.5 -114t-119.5 -84.5z" />
    <glyph glyph-name="quotedblleft" unicode="&#x201c;" horiz-adv-x="661" 
d="M-31 956v95q0 88 24 171t84.5 160.5t149.5 120.5l97 -127q-82 -58 -108 -140t-26 -218v-62h-221zM297 956v95q0 88 24 171t84.5 160.5t149.5 120.5l96 -127q-82 -58 -107.5 -140t-25.5 -218v-62h-221z" />
    <glyph glyph-name="quotedblright" unicode="&#x201d;" horiz-adv-x="661" 
d="M10 1055q82 58 107.5 140t25.5 218v62h222v-95q0 -65 -14.5 -128.5t-44 -125t-81 -114t-119.5 -84.5zM338 1055q82 58 107.5 140t25.5 218v62h221v-95q0 -88 -24 -171t-84.5 -160.5t-149.5 -120.5z" />
    <glyph glyph-name="quotedblbase" unicode="&#x201e;" horiz-adv-x="661" 
d="M-12 -174q82 58 107.5 140t25.5 218v62h221v-94q0 -65 -14.5 -129t-43.5 -125.5t-80.5 -114t-119.5 -84.5zM315 -174q82 58 108 140t26 218v62h221v-94q0 -65 -14.5 -129t-43.5 -125.5t-80.5 -114t-119.5 -84.5z" />
    <glyph glyph-name="dagger" unicode="&#x2020;" horiz-adv-x="696" 
d="M14 840v182h232v453h203v-453h233v-182h-233v-1178h-203v1178h-232z" />
    <glyph glyph-name="daggerdbl" unicode="&#x2021;" horiz-adv-x="696" 
d="M14 840v182h232v453h203v-453h233v-182h-233v-222h229v-202h-229v-754h-203v754h-223v202h223v222h-232z" />
    <glyph glyph-name="bullet" unicode="&#x2022;" horiz-adv-x="696" 
d="M197 590q0 63 44 107t107 44t107.5 -44t44.5 -107t-44.5 -107.5t-107.5 -44.5t-107 44.5t-44 107.5z" />
    <glyph glyph-name="ellipsis" unicode="&#x2026;" horiz-adv-x="1323" 
d="M113 117q0 64 39 104.5t98 40.5t98 -40t39 -97q0 -61 -38.5 -100t-98.5 -39t-98.5 37t-38.5 94zM524 117q0 64 39.5 104.5t98.5 40.5t98 -40t39 -97q0 -61 -38.5 -100t-98.5 -39t-99 37t-39 94zM936 117q0 64 39 104.5t98 40.5t98 -40t39 -97q0 -61 -38.5 -100t-98.5 -39
t-98.5 37t-38.5 94z" />
    <glyph glyph-name="uni202F" unicode="&#x202f;" horiz-adv-x="467" 
 />
    <glyph glyph-name="perthousand" unicode="&#x2030;" horiz-adv-x="1492" 
d="M59 954v287q0 44 2 73.5t12.5 68.5t29 62t54 39.5t85.5 16.5t85.5 -17t54 -41t28.5 -63t12 -68.5t2 -72.5v-283q0 -43 -2 -72.5t-12 -68.5t-28.5 -63t-54 -41t-85.5 -17q-42 0 -74 10.5t-51 31.5t-31.5 43.5t-18 56t-7 58t-1.5 60.5zM193 887q0 -45 13 -62.5t38 -17.5
q23 0 35 17t12 63v428q0 46 -12 62t-35 16q-26 0 -38.5 -17t-12.5 -63v-426zM215 16l508 1500l121 -46l-508 -1499zM645 244v286q0 44 2 73.5t12 68.5t28.5 62.5t54 40t85.5 16.5q36 0 65 -9t47.5 -22.5t32.5 -36t21 -43.5t11 -50t5 -50.5t1 -51.5v-282q0 -43 -2 -72.5
t-12.5 -68.5t-29 -63t-54 -41t-85.5 -17q-42 0 -73.5 10.5t-51 31.5t-31.5 43.5t-17.5 56t-7 58t-1.5 60.5zM778 176q0 -45 13 -62.5t38 -17.5q23 0 35.5 17t12.5 63v428q0 46 -12.5 62t-35.5 16q-26 0 -38.5 -17t-12.5 -63v-426zM1069 244v286q0 44 2 73.5t12 68.5
t28.5 62.5t54 40t85.5 16.5q36 0 65 -9t47.5 -22.5t32.5 -36t21 -43.5t11 -50t5 -50.5t1 -51.5v-282q0 -43 -2 -72.5t-12.5 -68.5t-29 -63t-54 -41t-85.5 -17q-42 0 -73.5 10.5t-51 31.5t-31.5 43.5t-17.5 56t-7 58t-1.5 60.5zM1202 176q0 -45 13 -62.5t38 -17.5q23 0 35 17
t12 63v428q0 46 -12 62t-35 16q-26 0 -38.5 -17t-12.5 -63v-426z" />
    <glyph glyph-name="guilsinglleft" unicode="&#x2039;" horiz-adv-x="612" 
d="M98 535l256 419l125 -71l-170 -348l170 -349l-125 -71z" />
    <glyph glyph-name="guilsinglright" unicode="&#x203a;" horiz-adv-x="612" 
d="M119 186l170 349l-170 348l125 71l256 -419l-256 -420z" />
    <glyph glyph-name="fraction" unicode="&#x2044;" horiz-adv-x="868" 
d="M96 16l508 1500l121 -46l-508 -1499z" />
    <glyph glyph-name="uni205F" unicode="&#x205f;" horiz-adv-x="584" 
 />
    <glyph glyph-name="zerosuperior" unicode="&#x2070;" 
d="M59 954v287q0 44 2 73.5t12.5 68.5t29 62t54 39.5t85.5 16.5t85.5 -17t54 -41t28.5 -63t12 -68.5t2 -72.5v-283q0 -43 -2 -72.5t-12 -68.5t-28.5 -63t-54 -41t-85.5 -17q-42 0 -74 10.5t-51 31.5t-31.5 43.5t-18 56t-7 58t-1.5 60.5zM193 887q0 -45 13 -62.5t38 -17.5
q23 0 35 17t12 63v428q0 46 -12 62t-35 16q-26 0 -38.5 -17t-12.5 -63v-426z" />
    <glyph glyph-name="foursuperior" unicode="&#x2074;" 
d="M41 864v90l223 533h107v-518h71v-105h-71v-155h-111v155h-219zM143 969h117v280z" />
    <glyph glyph-name="fivesuperior" unicode="&#x2075;" 
d="M61 774l80 86q47 -51 90 -51q64 0 64 78v129q0 42 -14 58t-41 16q-43 0 -76 -41l-76 45l8 393h316v-117h-209l-2 -186q28 22 67 22q156 0 156 -196v-103q0 -213 -197 -213q-108 0 -166 80z" />
    <glyph glyph-name="sixsuperior" unicode="&#x2076;" 
d="M59 958v279q0 59 7.5 101.5t27.5 82t61.5 60t104.5 20.5q109 0 162 -59l-66 -86q-45 35 -82 35q-20 0 -34.5 -4t-23 -17.5t-13.5 -24t-7 -40t-2.5 -47.5t-0.5 -62q8 12 31.5 24.5t56.5 12.5q37 0 63.5 -11.5t42 -30.5t24 -52t11 -66t2.5 -82v-30q0 -36 -1.5 -60.5t-7 -59
t-17.5 -58t-31 -45.5t-51 -33t-74 -11q-50 0 -85.5 17t-54 41t-29 63.5t-12.5 69t-2 73.5zM193 891q0 -84 53 -84q47 0 47 84v141q0 82 -47 82q-53 0 -53 -84v-139z" />
    <glyph glyph-name="sevensuperior" unicode="&#x2077;" 
d="M72 1370v117h362v-80l-198 -698h-138l199 661h-225z" />
    <glyph glyph-name="eightsuperior" unicode="&#x2078;" 
d="M59 909v58q0 70 16.5 103.5t63.5 47.5q-44 16 -58.5 50.5t-14.5 101.5v41q0 92 41.5 141t136.5 49q94 0 134 -50t40 -140v-41q0 -67 -15 -101.5t-59 -50.5q47 -14 63.5 -47.5t16.5 -103.5v-58q0 -103 -39.5 -159t-142.5 -56t-143 56t-40 159zM190 854q0 -59 52 -59
q51 0 51 59v145q0 60 -51 60q-52 0 -52 -60v-145zM193 1208q0 -55 49 -55t49 55v144q0 53 -49 53t-49 -53v-144z" />
    <glyph glyph-name="ninesuperior" unicode="&#x2079;" 
d="M59 1212v23q0 43 2 73t12.5 69.5t29 64t54 42t85.5 17.5q42 0 74 -11t51 -32.5t31 -44t17.5 -56.5t7 -59t1.5 -61v-279q0 -59 -7.5 -101.5t-27.5 -82t-61.5 -60t-104.5 -20.5q-110 0 -160 56l64 94q45 -35 88 -35q19 0 32 4.5t21.5 18t13 25.5t6.5 40.5t2.5 48t0.5 62.5
q-8 -12 -31.5 -24.5t-56.5 -12.5q-46 0 -75.5 16t-44 50.5t-19.5 74t-5 100.5zM190 1171q0 -81 48 -81q53 0 53 84v131q0 84 -53 84q-48 0 -48 -84v-134z" />
    <glyph glyph-name="parenleftsuperior" unicode="&#x207d;" horiz-adv-x="339" 
d="M68 1096q0 79 6 144t23.5 129t45 107.5t74 70.5t107.5 28v-115q-127 -19 -127 -364q0 -185 33 -275t98 -104v-117q-144 0 -202 120.5t-58 375.5z" />
    <glyph glyph-name="parenrightsuperior" unicode="&#x207e;" horiz-adv-x="339" 
d="M12 600v117q65 14 98 104t33 275q0 345 -127 364v115q61 -1 107.5 -28t74 -70.5t45 -107.5t23.5 -129t6 -144q0 -255 -58 -375.5t-202 -120.5z" />
    <glyph glyph-name="zeroinferior" unicode="&#x2080;" 
d="M59 246v286q0 44 2 74t12.5 68.5t29 62t54 40t85.5 16.5q42 0 74 -11t51 -32.5t31 -44t17.5 -56.5t7 -59t1.5 -60v-282q0 -43 -2 -72.5t-12 -68.5t-28.5 -63t-54 -41t-85.5 -17q-42 0 -74 10.5t-51 31.5t-31.5 43.5t-18 56t-7 58t-1.5 60.5zM193 178q0 -45 13 -62.5
t38 -17.5q23 0 35 17t12 63v428q0 46 -12 62t-35 16q-26 0 -38.5 -17t-12.5 -63v-426z" />
    <glyph glyph-name="oneinferior" unicode="&#x2081;" 
d="M41 637l203 141h104v-778h-127v618l-117 -77z" />
    <glyph glyph-name="twoinferior" unicode="&#x2082;" 
d="M57 707q54 86 174 86q95 0 147 -53t52 -154q0 -57 -12 -102t-31 -73t-42 -51t-45.5 -42.5t-41.5 -40t-31 -51.5t-12 -70v-39h203v-117h-336v113q0 94 23.5 152t76.5 112q5 5 22 21.5t24 24t21 23.5t20.5 28.5t14.5 30.5t11.5 37.5t3.5 41.5q0 57 -17 78.5t-53 21.5
q-50 0 -92 -53z" />
    <glyph glyph-name="threeinferior" unicode="&#x2083;" 
d="M61 66l78 84q46 -50 92 -50q34 0 49 19.5t15 60.5v88q0 30 -5 47.5t-17 25t-23 9.5t-33 2h-39v105h39q35 0 53.5 17t18.5 65v69q0 41 -14 57.5t-44 16.5q-42 0 -81 -39l-76 82q56 68 166 68q95 0 136.5 -47.5t41.5 -137.5v-47q0 -67 -15 -101t-59 -50q47 -14 63.5 -48
t16.5 -104v-55q0 -217 -197 -217q-108 0 -166 80z" />
    <glyph glyph-name="fourinferior" unicode="&#x2084;" 
d="M41 156v90l223 532h107v-518h71v-104h-71v-156h-111v156h-219zM143 260h117v281z" />
    <glyph glyph-name="fiveinferior" unicode="&#x2085;" 
d="M61 66l80 86q48 -52 90 -52q64 0 64 78v129q0 42 -14 58t-41 16q-43 0 -76 -41l-76 45l8 393h316v-116h-209l-2 -187q30 23 67 23q156 0 156 -197v-102q0 -213 -197 -213q-108 0 -166 80z" />
    <glyph glyph-name="sixinferior" unicode="&#x2086;" 
d="M59 250v278q0 59 7.5 102t27.5 82.5t61.5 60t104.5 20.5q108 0 162 -60l-66 -86q-45 35 -82 35q-20 0 -34.5 -4t-23 -17.5t-13.5 -24t-7 -40t-2.5 -47.5t-0.5 -62q8 12 31.5 24.5t56.5 12.5q46 0 75.5 -16t44 -50.5t19 -73.5t4.5 -101v-31q0 -43 -2 -72.5t-12 -69.5
t-28.5 -64.5t-54 -42t-85.5 -17.5t-85.5 17t-54 41t-29 63.5t-12.5 69t-2 73.5zM193 182q0 -84 53 -84q47 0 47 84v142q0 82 -47 82q-53 0 -53 -84v-140z" />
    <glyph glyph-name="seveninferior" unicode="&#x2087;" 
d="M72 662v116h362v-80l-198 -698h-138l199 662h-225z" />
    <glyph glyph-name="eightinferior" unicode="&#x2088;" 
d="M59 201v57q0 70 16.5 104t63.5 48q-44 16 -58.5 50t-14.5 101v41q0 191 178 191q174 0 174 -191v-41q0 -67 -15 -101t-59 -50q47 -14 63.5 -48t16.5 -104v-57q0 -103 -39.5 -159t-142.5 -56t-143 56t-40 159zM190 145q0 -59 52 -59q51 0 51 59v146q0 59 -51 59
q-52 0 -52 -59v-146zM193 500q0 -56 49 -56t49 56v143q0 53 -49 53t-49 -53v-143z" />
    <glyph glyph-name="nineinferior" unicode="&#x2089;" 
d="M59 504v22q0 43 2 73t12.5 70t29 64.5t54 42t85.5 17.5q42 0 74 -11t51 -32.5t31 -44.5t17.5 -57t7 -59t1.5 -61v-278q0 -59 -7.5 -101.5t-27.5 -82t-61.5 -60t-104.5 -20.5q-111 0 -160 55l64 94q45 -35 88 -35q19 0 32 4.5t21.5 18t13 25.5t6.5 40.5t2.5 48t0.5 62.5
q-8 -12 -31.5 -24.5t-56.5 -12.5q-46 0 -75.5 16t-44 51t-19.5 74.5t-5 100.5zM190 463q0 -82 48 -82q53 0 53 84v131q0 84 -53 84q-48 0 -48 -84v-133z" />
    <glyph glyph-name="parenleftinferior" unicode="&#x208d;" horiz-adv-x="339" 
d="M68 387q0 79 6 144t23.5 129t45 107.5t74 70.5t107.5 28v-114q-127 -19 -127 -365q0 -185 33 -275t98 -104v-117q-144 0 -202 120.5t-58 375.5z" />
    <glyph glyph-name="parenrightinferior" unicode="&#x208e;" horiz-adv-x="339" 
d="M12 8q65 14 98 104t33 275q0 346 -127 365v114q61 -1 107.5 -28t74 -70.5t45 -107.5t23.5 -129t6 -144q0 -255 -58 -375.5t-202 -120.5v117z" />
    <glyph glyph-name="franc" unicode="&#x20a3;" horiz-adv-x="1128" 
d="M90 0v1475h574v-209h-371v-402h225v-182h-225v-682h-203zM664 0v864h137l24 -143q36 96 92 131.5t142 38.5v-215q-69 -1 -115 -26.5t-86 -82.5v-567h-194z" />
    <glyph glyph-name="lira" unicode="&#x20a4;" horiz-adv-x="778" 
d="M14 500v176h140q-7 53 -25 143h-115v176h76q-8 40 -8 84q0 100 20 176.5t52 122.5t77 75t89 39.5t94 10.5q89 0 159.5 -38.5t106.5 -96.5l-113 -129q-2 2 -10.5 12.5t-12.5 14.5l-13.5 13.5t-16.5 14.5t-18 12t-21.5 10.5t-24 6t-28.5 2.5q-143 0 -143 -256q0 -47 6 -74
h272v-176h-242q25 -111 29 -143h213v-176h-201q-8 -113 -50.5 -198.5t-80.5 -111.5h402v-190h-600v176q13 6 31 25.5t41.5 56t40.5 100.5t20 142h-146z" />
    <glyph glyph-name="peseta" unicode="&#x20a7;" horiz-adv-x="1992" 
d="M90 0v1475h266q62 0 108 -3.5t90.5 -13t75 -26t57.5 -43t42.5 -64t24 -88.5t8.5 -117v-194q0 -80 -10 -139t-32.5 -100.5t-52.5 -68.5t-76 -42t-97.5 -21t-122.5 -6h-78v-549h-203zM293 743h84q95 0 134.5 37.5t39.5 132.5v172q0 62 -9.5 100t-32.5 58.5t-54 27.5t-82 7
h-80v-535zM842 840v147l114 27l21 231l172 41v-264h156v-182h-156v-596q0 -54 16 -71t66 -17q30 0 78 6v-164q-81 -25 -154 -25q-106 0 -153.5 50t-47.5 184v633h-112zM1382 82l107 133l8 -7q8 -7 10 -9t10.5 -8t13 -9t13.5 -8t17 -7.5t18 -5.5t20.5 -4t22.5 -1
q55 0 82 28.5t27 91.5q0 42 -23.5 76t-58 56t-75.5 51.5t-75.5 60.5t-58 85.5t-23.5 123.5q0 141 72 229.5t205 88.5q53 0 94.5 -9.5t69 -28.5t39.5 -30.5t30 -32.5l-108 -127l-11 11q-12 10 -15.5 12.5t-15 10t-20 10.5t-22 6t-27.5 3q-100 0 -100 -120q0 -39 17.5 -70
t45.5 -53t61.5 -43t67.5 -46.5t62 -56.5t45.5 -79.5t17.5 -110.5q0 -160 -79 -238t-218 -78q-165 0 -246 105z" />
    <glyph glyph-name="Euro" unicode="&#x20ac;" horiz-adv-x="757" 
d="M43 500v170h115v155h-115v170h113v58q0 82 7 143t28 122t57 99t98.5 62t147.5 24q110 0 175 -34t113 -99l-125 -123q-23 28 -62.5 50t-88.5 22q-76 0 -110 -49.5t-34 -165.5v-109h232v-170h-234v-155h234v-170h-232v-121q0 -119 31 -167t109 -48q97 0 174 72l112 -142
q-38 -48 -111.5 -84.5t-176.5 -36.5q-86 0 -148 22.5t-99.5 59.5t-59.5 97t-29.5 123t-7.5 149v76h-113z" />
    <glyph glyph-name="afii61289" unicode="&#x2113;" horiz-adv-x="1024" 
d="M195 367q0 19 41 55q12 11 48.5 48.5t53.5 57.5q85 442 182.5 651.5t220.5 209.5q58 0 93.5 -45.5t35.5 -120.5q0 -83 -35.5 -189t-95.5 -205q-73 -117 -229 -278q-46 -242 -57 -308t-11 -118q0 -51 37 -51q53 0 105 110q15 37 39 37q26 0 26 -31q0 -47 -53 -122
q-75 -97 -156 -97q-64 0 -100.5 48t-36.5 133q0 64 21 260q-83 -78 -101 -78q-10 0 -19 10.5t-9 22.5zM532 682q256 287 256 532q0 40 -13 65.5t-34 25.5q-23 0 -46.5 -25.5t-37.5 -65.5q-63 -177 -125 -532z" />
    <glyph glyph-name="afii61352" unicode="&#x2116;" horiz-adv-x="1380" 
d="M76 0v1475h217l272 -992v992h174v-1475h-213l-276 1008v-1008h-174zM883 944v266q0 143 51.5 209t169.5 66q117 0 168 -64.5t51 -210.5v-266q0 -147 -51 -211.5t-168 -64.5q-119 0 -170 66t-51 210zM1034 936q0 -37 2 -57.5t8.5 -40.5t21 -28.5t38.5 -8.5q20 0 33 7
t20 15.5t10 30.5t3.5 35.5t0.5 46.5v285q0 33 -0.5 46.5t-3.5 35.5t-10 30.5t-20 15.5t-33 7q-45 0 -57.5 -31t-12.5 -104v-285z" />
    <glyph glyph-name="trademark" unicode="&#x2122;" horiz-adv-x="1292" 
d="M90 1327v148h475v-148h-168v-645h-141v645h-166zM651 682v793h168l129 -490l127 490h168v-793h-129v475l-100 -385h-135l-101 385v-475h-127z" />
    <glyph glyph-name="uni2126" unicode="&#x2126;" horiz-adv-x="843" 
d="M78 0v186h153q-28 10 -50 24.5t-38 35.5t-27.5 40.5t-18.5 52t-11 56t-5.5 66t-2 69.5t-0.5 78v408q0 63 1 96.5t7.5 93.5t18.5 94t37 78t60.5 67.5t91 40.5t126.5 17q72 0 128 -17.5t92 -41.5t61.5 -68.5t37.5 -79.5t18.5 -95t7.5 -93.5t1 -95.5v-404q0 -57 -0.5 -88
t-3.5 -77.5t-8.5 -73t-16.5 -59.5t-27 -53.5t-40 -39.5t-56 -31h152v-186h-297v193q39 8 55 31.5t21.5 76.5t5.5 180v555q0 44 -0.5 65.5t-2.5 56.5t-7 52.5t-14 40.5t-22.5 33.5t-33.5 18.5t-47 8q-28 0 -48.5 -8t-34.5 -19t-23.5 -34t-14.5 -41t-7 -53.5t-2.5 -57.5
t-0.5 -66v-551q0 -124 6.5 -179t22.5 -78t53 -31v-193h-297z" />
    <glyph glyph-name="estimated" unicode="&#x212e;" horiz-adv-x="1634" 
d="M59 655q0 138 60 264t161.5 217t242 145t294.5 54t294.5 -54t242 -145t161.5 -217t60 -264v-18h-1227q-12 0 -12 -8v-371q0 -21 18 -43q90 -95 210 -148t255 -53q143 0 269.5 60.5t218.5 165.5h110q-105 -123 -263 -195t-337 -72q-154 0 -294.5 54t-242 145t-161.5 217.5
t-60 265.5zM336 686q0 -10 12 -10h940q10 0 10 10v371q0 25 -20 45q-89 91 -208 141.5t-251 50.5q-134 0 -253.5 -52.5t-209.5 -145.5q-20 -20 -20 -47v-363z" />
    <glyph glyph-name="onethird" unicode="&#x2153;" horiz-adv-x="1069" 
d="M41 1346l203 141h104v-778h-127v618l-117 -78zM215 16l508 1500l121 -46l-508 -1499zM655 66q58 -80 166 -80q197 0 197 217v55q0 70 -16.5 104t-63.5 48q44 16 59 50t15 101v47q0 90 -41.5 137.5t-136.5 47.5q-110 0 -166 -68l75 -82q39 39 82 39q30 0 44 -16.5
t14 -57.5v-69q0 -48 -18.5 -65t-53.5 -17h-39v-105h39q22 0 33 -2t23 -9.5t17 -25t5 -47.5v-88q0 -41 -15 -60.5t-49 -19.5q-46 0 -92 50z" />
    <glyph glyph-name="twothirds" unicode="&#x2154;" horiz-adv-x="1069" 
d="M57 1415l80 -76q43 54 92 54q36 0 53 -22t17 -79q0 -22 -3.5 -41.5t-11.5 -37.5t-14.5 -30.5t-20.5 -28.5t-21 -23.5t-24 -24t-22 -21.5q-53 -54 -76.5 -112t-23.5 -152v-112h336v116h-203v39q0 39 12 70t31 51.5t41.5 40t45.5 42.5t42 51t31 73t12 102q0 101 -52 154
t-147 53q-120 0 -174 -86zM215 16l508 1500l121 -46l-508 -1499zM676 66q58 -80 166 -80q196 0 196 217v55q0 70 -16.5 104t-63.5 48q44 16 59 50t15 101v47q0 90 -41.5 137.5t-136.5 47.5q-110 0 -166 -68l76 -82q39 39 82 39q30 0 43.5 -16t13.5 -58v-69q0 -48 -18.5 -65
t-53.5 -17h-38v-105h38q22 0 33 -2t23 -9.5t17 -25t5 -47.5v-88q0 -42 -15 -61t-48 -19q-46 0 -92 50z" />
    <glyph glyph-name="oneeighth" unicode="&#x215b;" horiz-adv-x="1069" 
d="M41 1346l203 141h104v-778h-127v618l-117 -78zM215 16l508 1500l121 -46l-508 -1499zM645 201q0 -103 39.5 -159t142.5 -56t143 56t40 159v57q0 70 -16.5 104t-63.5 48q44 16 59 50t15 101v41q0 191 -175 191q-178 0 -178 -191v-41q0 -67 15 -101t59 -50
q-47 -14 -63.5 -48t-16.5 -104v-57zM776 145v146q0 59 51 59q52 0 52 -59v-146q0 -59 -52 -59q-51 0 -51 59zM778 500v143q0 53 49 53q50 0 50 -53v-143q0 -56 -50 -56q-49 0 -49 56z" />
    <glyph glyph-name="threeeighths" unicode="&#x215c;" horiz-adv-x="1069" 
d="M61 774q58 -80 166 -80q197 0 197 217v56q0 70 -16.5 103.5t-63.5 47.5q44 16 59 50.5t15 101.5v47q0 90 -41.5 137t-136.5 47q-111 0 -166 -67l76 -82q39 39 81 39q30 0 44 -16.5t14 -57.5v-70q0 -48 -18.5 -65t-53.5 -17h-39v-104h39q22 0 33 -2t23 -9.5t17 -25
t5 -47.5v-88q0 -41 -15 -60.5t-49 -19.5q-47 0 -92 49zM215 16l508 1500l121 -46l-508 -1499zM645 201q0 -103 39.5 -159t142.5 -56t143 56t40 159v57q0 70 -16.5 104t-63.5 48q44 16 59 50t15 101v41q0 191 -175 191q-178 0 -178 -191v-41q0 -67 15 -101t59 -50
q-47 -14 -63.5 -48t-16.5 -104v-57zM776 145v146q0 59 51 59q52 0 52 -59v-146q0 -59 -52 -59q-51 0 -51 59zM778 500v143q0 53 49 53q50 0 50 -53v-143q0 -56 -50 -56q-49 0 -49 56z" />
    <glyph glyph-name="fiveeighths" unicode="&#x215d;" horiz-adv-x="1069" 
d="M61 774l80 86q47 -51 90 -51q64 0 64 78v129q0 42 -14 58t-41 16q-43 0 -76 -41l-76 45l8 393h316v-117h-209l-2 -186q28 22 67 22q156 0 156 -196v-103q0 -213 -197 -213q-108 0 -166 80zM215 16l508 1500l121 -46l-508 -1499zM645 201q0 -103 39.5 -159t142.5 -56
t143 56t40 159v57q0 70 -16.5 104t-63.5 48q44 16 59 50t15 101v41q0 191 -175 191q-178 0 -178 -191v-41q0 -67 15 -101t59 -50q-47 -14 -63.5 -48t-16.5 -104v-57zM776 145v146q0 59 51 59q52 0 52 -59v-146q0 -59 -52 -59q-51 0 -51 59zM778 500v143q0 53 49 53
q50 0 50 -53v-143q0 -56 -50 -56q-49 0 -49 56z" />
    <glyph glyph-name="seveneighths" unicode="&#x215e;" horiz-adv-x="1069" 
d="M72 1370v117h362v-80l-198 -698h-138l199 661h-225zM215 16l508 1500l121 -46l-508 -1499zM645 201q0 -103 39.5 -159t142.5 -56t143 56t40 159v57q0 70 -16.5 104t-63.5 48q44 16 59 50t15 101v41q0 191 -175 191q-178 0 -178 -191v-41q0 -67 15 -101t59 -50
q-47 -14 -63.5 -48t-16.5 -104v-57zM776 145v146q0 59 51 59q52 0 52 -59v-146q0 -59 -52 -59q-51 0 -51 59zM778 500v143q0 53 49 53q50 0 50 -53v-143q0 -56 -50 -56q-49 0 -49 56z" />
    <glyph glyph-name="partialdiff" unicode="&#x2202;" horiz-adv-x="757" 
d="M74 465v121q0 85 4.5 141t19 108t40.5 81t69 46t106 17q61 0 104 -24.5t60 -53.5v68q0 87 -2.5 138.5t-10.5 96.5t-24 66.5t-40.5 33t-63.5 11.5q-27 0 -54.5 -11.5t-41 -21t-37.5 -29.5l-111 146q87 104 264 104q62 0 111.5 -12.5t83.5 -33.5t58.5 -55.5t39 -71
t22.5 -88t10.5 -98t2.5 -108.5v-575q0 -63 -1 -96.5t-6.5 -93.5t-16.5 -94.5t-33 -78.5t-53.5 -67.5t-80.5 -40.5t-112 -17q-64 0 -113.5 17.5t-81.5 41.5t-54.5 69t-33.5 79.5t-16.5 95t-6.5 94t-1 95.5zM281 373q0 -19 1.5 -51t4 -48t6.5 -39t11.5 -34t17 -23.5t23.5 -17
t32 -4.5q24 0 42 8.5t28.5 29.5t17 40t9 57.5t3 63.5t0.5 75v84v58t-1.5 51.5t-4 49t-7 39.5t-12 35t-17.5 24t-25 17t-33 5q-23 0 -40 -8.5t-27.5 -29.5t-16.5 -40t-8.5 -58t-3 -63.5t-0.5 -75.5v-88v-57z" />
    <glyph glyph-name="uni2206" unicode="&#x2206;" horiz-adv-x="860" 
d="M37 0l256 1475h256l274 -1475h-786zM279 211h294l-155 956z" />
    <glyph glyph-name="product" unicode="&#x220f;" horiz-adv-x="843" 
d="M-113 1266v209h1069v-209h-202v-1266h-203v1266h-258v-1266h-203v1266h-203z" />
    <glyph glyph-name="summation" unicode="&#x2211;" horiz-adv-x="768" 
d="M20 0v186l281 564l-278 526v199h608v-209h-385l272 -514l-276 -555h428v-197h-650z" />
    <glyph glyph-name="minus" unicode="&#x2212;" horiz-adv-x="757" 
d="M33 621v190h692v-190h-692z" />
    <glyph glyph-name="radical" unicode="&#x221a;" horiz-adv-x="757" 
d="M-23 618v191h285l107 -453l235 1147l176 -39l-325 -1464h-179l-145 618h-154z" />
    <glyph glyph-name="infinity" unicode="&#x221e;" horiz-adv-x="761" 
d="M12 713q0 113 50 178t124 65q70 0 107.5 -29t85.5 -104q21 33 36 52.5t39 41t55 31.5t71 10q70 0 120 -60.5t50 -182.5q0 -113 -51 -178.5t-126 -65.5q-35 0 -64.5 11.5t-53.5 34.5t-38.5 42t-35.5 51q-20 -30 -35 -50t-39.5 -44t-54.5 -36.5t-64 -12.5q-74 0 -125 63
t-51 183zM135 713q0 -42 15 -66t40 -24q32 0 57 22.5t60 71.5q-32 48 -55.5 68t-56.5 20q-27 0 -43.5 -24.5t-16.5 -67.5zM457 717q34 -52 56.5 -72t55.5 -20q25 0 41.5 24t16.5 66q0 43 -17.5 67.5t-48.5 24.5q-19 0 -34.5 -7t-28.5 -22t-21 -27t-20 -34z" />
    <glyph glyph-name="integral" unicode="&#x222b;" horiz-adv-x="757" 
d="M88 -143q38 -11 96 -11q28 0 46.5 9t29 22.5t16 39.5t6.5 48t1 60v1142q0 180 61 258t207 78q61 0 121 -20v-174q-35 10 -97 10q-28 0 -46.5 -9t-28.5 -22t-15.5 -39t-6.5 -48t-1 -60v-1143q0 -180 -61 -258t-207 -78q-58 0 -121 21v174z" />
    <glyph glyph-name="approxequal" unicode="&#x2248;" horiz-adv-x="833" 
d="M33 518q72 68 124.5 96.5t106.5 28.5q61 0 140 -35t118 -35q78 0 150 62l94 -119q-133 -125 -238 -125q-57 0 -136 36t-120 36q-39 0 -71.5 -13.5t-73.5 -48.5zM33 913q72 68 124.5 96.5t106.5 28.5q61 0 140 -34.5t118 -34.5q79 0 150 61l94 -119q-133 -125 -238 -125
q-57 0 -136 36t-120 36q-39 0 -71.5 -13t-73.5 -48z" />
    <glyph glyph-name="notequal" unicode="&#x2260;" horiz-adv-x="792" 
d="M29 422v190h243l76 207h-319v191h387l76 211l145 -60l-57 -151h141v-191h-209l-76 -207h285v-190h-352l-80 -207l-144 59l60 148h-176z" />
    <glyph glyph-name="lessequal" unicode="&#x2264;" horiz-adv-x="757" 
d="M33 0v195h692v-195h-692zM33 621v190l573 342l111 -178l-445 -266l445 -289l-111 -182z" />
    <glyph glyph-name="greaterequal" unicode="&#x2265;" horiz-adv-x="757" 
d="M33 0v195h692v-195h-692zM37 420l444 289l-444 266l110 178l574 -342v-190l-574 -383z" />
    <glyph glyph-name="lozenge" unicode="&#x25ca;" horiz-adv-x="817" 
d="M29 752l282 723h195l285 -723l-283 -752h-197zM223 750l185 -502l186 502l-186 483z" />
    <glyph glyph-name="uniE000" unicode="&#xe000;" horiz-adv-x="1024" 
d="M0 0v1024h1024v-1024h-1024z" />
    <glyph glyph-name="CR" horiz-adv-x="0" 
 />
    <glyph glyph-name="Euro.fitted" horiz-adv-x="757" 
d="M43 500v170h115v155h-115v170h113v58q0 82 7 143t28 122t57 99t98.5 62t147.5 24q110 0 175 -34t113 -99l-125 -123q-23 28 -62.5 50t-88.5 22q-76 0 -110 -49.5t-34 -165.5v-109h232v-170h-234v-155h234v-170h-232v-121q0 -119 31 -167t109 -48q97 0 174 72l112 -142
q-38 -48 -111.5 -84.5t-176.5 -36.5q-86 0 -148 22.5t-99.5 59.5t-59.5 97t-29.5 123t-7.5 149v76h-113z" />
    <glyph glyph-name="dollar.fitted" horiz-adv-x="692" 
d="M70 307l108 135q1 -1 9 -8t11.5 -10t12.5 -10t15.5 -10.5t17 -8.5t20.5 -7.5t23 -4.5t26 -2q109 0 109 123q0 37 -17.5 66.5t-45.5 51.5t-62 43.5t-68 48t-62 58.5t-45.5 81t-17.5 110q0 116 50.5 202.5t144.5 110.5v199h156v-199q94 -8 168 -94l-111 -129q-3 3 -15 13
t-19.5 15.5t-20 12.5t-27 10.5t-31.5 3.5q-102 0 -102 -123q0 -39 18 -70.5t46.5 -53.5t63 -43t69 -47t63 -57.5t46.5 -81t18 -112.5q0 -132 -53.5 -210t-151.5 -99v-211h-158v207q-127 14 -188 100z" />
    <glyph glyph-name="cent.fitted" horiz-adv-x="698" 
d="M70 563v342q0 62 4.5 107.5t18 92.5t37 78t64.5 54.5t97 32.5v205h158v-205q114 -21 176 -125l-142 -117q-41 68 -104 68q-29 0 -49 -10.5t-31.5 -27t-18 -45t-8.5 -57t-2 -71.5v-246q0 -107 11.5 -160.5t37 -73.5t76.5 -20q61 0 111 66l123 -123q-68 -99 -180 -119v-209
h-158v209q-120 20 -170.5 104.5t-50.5 249.5z" />
    <glyph glyph-name="sterling.fitted" horiz-adv-x="720" 
d="M43 655v183h102q-14 37 -25 105t-11 136q0 100 20 176.5t52.5 122.5t77.5 75t89 39.5t94 10.5q89 0 160 -38.5t107 -96.5l-113 -129q-2 2 -10.5 12.5t-12.5 14.5l-13.5 13.5t-16.5 14.5t-18 12t-21.5 10.5t-24 6t-28.5 2.5q-68 0 -104 -59.5t-36 -196.5q0 -108 35 -231
h240v-183h-207q10 -40 10 -118q0 -122 -46 -220t-89 -127h401v-190h-600v176q14 7 33 27.5t43 60t40.5 110t16.5 156.5q0 69 -8 125h-137z" />
    <glyph glyph-name="florin.fitted" horiz-adv-x="712" 
d="M-70 -326l41 154q35 -14 78 -14q54 0 74.5 47.5t38.5 195.5l80 676h-123l20 168h121l23 182q8 57 14.5 97t18.5 87t26 79t36 64t49 51t64.5 30.5t83.5 11.5q67 0 125 -26l-24 -183q-45 17 -84 17q-58 0 -79 -46t-36 -173l-20 -191h147l-18 -168h-150l-74 -616v-1
q-24 -197 -53 -281q-62 -174 -213 -191q-17 -2 -35 -2q-74 0 -131 32z" />
    <glyph glyph-name="yen.fitted" horiz-adv-x="690" 
d="M12 825v170h129l-129 480h224l116 -590l117 590h209l-129 -480h129v-170h-178l-43 -155h200v-170h-211v-500h-202v500h-211v170h200l-43 155h-178z" />
    <glyph glyph-name="zero.fitted" horiz-adv-x="749" 
d="M70 461v555q0 63 1 96.5t6.5 93.5t16.5 94t33 78t53.5 67.5t80.5 40.5t112 17q64 0 113.5 -17.5t81.5 -41.5t54.5 -68.5t33.5 -79.5t16.5 -95t6.5 -93.5t1 -95.5v-547q0 -62 -1 -95.5t-6.5 -94t-16.5 -95t-33.5 -79.5t-54.5 -69t-81.5 -41.5t-113.5 -17.5q-63 0 -112 17
t-80.5 40.5t-53.5 67.5t-33 78.5t-16.5 94.5t-6.5 93.5t-1 96.5zM276 436q0 -37 0.5 -56.5t1.5 -50.5t3.5 -48t7.5 -39.5t12.5 -34t17.5 -23.5t25 -17t33 -5t32 4.5t23.5 17t17 23.5t11.5 34t6.5 39t4 48t1.5 51v57v608q0 51 -0.5 75.5t-3 63.5t-8.5 58t-16.5 40t-27.5 29.5
t-40 8.5q-18 0 -33 -5t-25 -17t-17.5 -24t-12.5 -35t-7.5 -40t-3.5 -48.5t-1.5 -51.5t-0.5 -58v-604z" />
    <glyph glyph-name="one.fitted" horiz-adv-x="569" 
d="M12 1245l326 230h156v-1475h-199v1235l-189 -131z" />
    <glyph glyph-name="two.fitted" horiz-adv-x="710" 
d="M43 1358q96 145 307 145q318 0 318 -373q0 -47 -3.5 -87.5t-8 -72.5t-15 -63.5t-18.5 -53.5t-25.5 -48t-29 -42t-35 -41.5t-37.5 -39.5t-43.5 -42.5t-46.5 -45.5q-77 -77 -104.5 -144.5t-27.5 -177.5v-79h371v-193h-569v236q0 181 41 283t143 204q5 5 33.5 33t36 36
t31.5 35.5t32 42.5t24.5 45t22.5 55t11.5 60t5.5 72q0 123 -32.5 173t-100.5 50q-85 0 -152 -86z" />
    <glyph glyph-name="three.fitted" horiz-adv-x="671" 
d="M12 123l133 131q69 -96 148 -96q66 0 92.5 48t26.5 159v102q0 38 -2 67t-9 50.5t-13 36.5t-20 24.5t-24 15t-31.5 8t-36 3t-43.5 0.5h-28v188h28q35 0 52 1t40.5 7t34 18.5t22 34.5t15.5 57t4 85v86q0 85 -23 130.5t-85 45.5q-82 0 -146 -90l-127 117q91 151 281 151
q165 0 235 -91t70 -257v-119q0 -116 -34.5 -175t-118.5 -79q76 -14 119.5 -83t43.5 -185v-149q0 -87 -15.5 -154.5t-51 -123t-101 -85t-159.5 -29.5q-99 0 -170.5 45t-106.5 105z" />
    <glyph glyph-name="four.fitted" horiz-adv-x="712" 
d="M25 311v168l348 996h196v-981h131v-183h-131v-311h-190v311h-354zM193 494h186v538z" />
    <glyph glyph-name="five.fitted" horiz-adv-x="708" 
d="M53 123l135 131q48 -59 80 -76.5t74 -17.5q35 0 59.5 19.5t37 56.5t17.5 80.5t5 101.5v114q0 111 -22.5 163.5t-88.5 52.5q-42 0 -74.5 -30.5t-50.5 -66.5l-135 82l19 742h532v-193h-371l-12 -428q13 36 59.5 65t100.5 29q129 0 188.5 -89t59.5 -273v-176
q0 -224 -76 -331.5t-246 -107.5q-197 0 -291 152z" />
    <glyph glyph-name="six.fitted" horiz-adv-x="722" 
d="M70 461v555q0 63 2.5 110t10.5 100.5t22 91.5t38.5 75t58.5 59.5t83.5 36.5t111.5 14q172 0 265 -104l-113 -148q-68 64 -131 64q-91 0 -117.5 -72t-26.5 -280v-86q12 32 63 67t120 35q45 0 79 -11.5t57.5 -29t40 -50.5t25.5 -65t14 -83.5t6 -94.5t1 -110v-70
q0 -62 -1 -95.5t-6.5 -94t-16.5 -95t-33.5 -79.5t-54.5 -69t-81.5 -41.5t-113.5 -17.5q-63 0 -112 17t-80.5 40.5t-53.5 67.5t-33 78.5t-16.5 94.5t-6.5 93.5t-1 96.5zM276 430q0 -37 0.5 -56.5t1.5 -50.5t3.5 -48t7.5 -39.5t12.5 -34t17.5 -23.5t25 -17t33 -5t32 4.5
t23.5 17t17 23.5t11.5 34t6.5 39t4 48t1.5 51v57v88q0 51 -0.5 75.5t-3 63.5t-8.5 58t-16.5 40t-27.5 29.5t-40 8.5q-18 0 -33 -5t-25 -17t-17.5 -24t-12.5 -35t-7.5 -40t-3.5 -48.5t-1.5 -51.5t-0.5 -58v-84z" />
    <glyph glyph-name="seven.fitted" horiz-adv-x="649" 
d="M12 1282v193h625v-146l-385 -1329h-211l399 1282h-428z" />
    <glyph glyph-name="eight.fitted" horiz-adv-x="749" 
d="M70 365v114q0 121 39.5 198.5t113.5 90.5q-143 32 -143 274v93q0 82 14 145t46 115t91 80t144 28t144 -28t91 -80t46 -115t14 -145v-93q0 -242 -144 -274q74 -13 114 -90.5t40 -198.5v-114q0 -63 -6.5 -114t-26 -104.5t-52 -90t-88.5 -60t-132 -23.5t-132 23.5t-88.5 60
t-52 90t-26 104.5t-6.5 114zM266 365q0 -98 23.5 -152.5t85.5 -54.5t85 54t23 153v88q0 98 -23 152t-85 54t-85.5 -54t-23.5 -152v-88zM270 1042q0 -94 22.5 -147t82.5 -53q31 0 52.5 15t32 44t15 62.5t4.5 78.5v84q0 61 -7.5 102.5t-31.5 70t-65 28.5q-31 0 -52.5 -15
t-32.5 -44t-15.5 -63t-4.5 -79v-84z" />
    <glyph glyph-name="nine.fitted" horiz-adv-x="722" 
d="M43 942v70q0 62 1 95.5t6.5 93.5t16.5 95t33.5 79.5t54.5 68.5t81.5 41.5t113.5 17.5q63 0 112 -17t80.5 -40.5t53.5 -67.5t33 -78t16.5 -94t6.5 -93.5t1 -96.5v-555q0 -63 -2.5 -110t-10.5 -100.5t-22 -92t-38.5 -75.5t-58.5 -59.5t-83.5 -36.5t-111.5 -14
q-174 0 -275 113l113 147q76 -71 141 -71q91 0 117.5 72t26.5 280v66q-60 -82 -162 -82q-38 0 -69.5 7t-55.5 18t-42 31t-30.5 40.5t-21.5 52.5t-13.5 60t-7.5 71t-3.5 77.5t-0.5 86.5zM250 901q0 -19 1.5 -51t4 -48t6.5 -39t11.5 -34t17 -23.5t23.5 -17t32 -4.5t33 5t25 17
t17.5 24t12 35t7 39.5t4 49t1.5 51.5v58v84q0 50 -0.5 75t-3 63.5t-9 57.5t-17 40t-28.5 29.5t-42 8.5q-18 0 -32 -4.5t-23.5 -17t-17 -23.5t-11.5 -34t-6.5 -39t-4 -48t-1.5 -51v-57v-89v-57z" />
    <glyph glyph-name="zero.dnom" 
d="M59 246v286q0 44 2 74t12.5 68.5t29 62t54 40t85.5 16.5q42 0 74 -11t51 -32.5t31 -44t17.5 -56.5t7 -59t1.5 -60v-282q0 -43 -2 -72.5t-12 -68.5t-28.5 -63t-54 -41t-85.5 -17q-42 0 -74 10.5t-51 31.5t-31.5 43.5t-18 56t-7 58t-1.5 60.5zM193 178q0 -45 13 -62.5
t38 -17.5q23 0 35 17t12 63v428q0 46 -12 62t-35 16q-26 0 -38.5 -17t-12.5 -63v-426z" />
    <glyph glyph-name="one.dnom" 
d="M41 637l203 141h104v-778h-127v618l-117 -77z" />
    <glyph glyph-name="two.dnom" 
d="M57 707q54 86 174 86q95 0 147 -53t52 -154q0 -57 -12 -102t-31 -73t-42 -51t-45.5 -42.5t-41.5 -40t-31 -51.5t-12 -70v-39h203v-117h-336v113q0 94 23.5 152t76.5 112q5 5 22 21.5t24 24t21 23.5t20.5 28.5t14.5 30.5t11.5 37.5t3.5 41.5q0 57 -17 78.5t-53 21.5
q-50 0 -92 -53z" />
    <glyph glyph-name="three.dnom" 
d="M61 66l78 84q46 -50 92 -50q34 0 49 19.5t15 60.5v88q0 30 -5 47.5t-17 25t-23 9.5t-33 2h-39v105h39q35 0 53.5 17t18.5 65v69q0 41 -14 57.5t-44 16.5q-42 0 -81 -39l-76 82q56 68 166 68q95 0 136.5 -47.5t41.5 -137.5v-47q0 -67 -15 -101t-59 -50q47 -14 63.5 -48
t16.5 -104v-55q0 -217 -197 -217q-108 0 -166 80z" />
    <glyph glyph-name="four.dnom" 
d="M41 156v90l223 532h107v-518h71v-104h-71v-156h-111v156h-219zM143 260h117v281z" />
    <glyph glyph-name="five.dnom" 
d="M61 66l80 86q48 -52 90 -52q64 0 64 78v129q0 42 -14 58t-41 16q-43 0 -76 -41l-76 45l8 393h316v-116h-209l-2 -187q30 23 67 23q156 0 156 -197v-102q0 -213 -197 -213q-108 0 -166 80z" />
    <glyph glyph-name="six.dnom" 
d="M59 250v278q0 59 7.5 102t27.5 82.5t61.5 60t104.5 20.5q108 0 162 -60l-66 -86q-45 35 -82 35q-20 0 -34.5 -4t-23 -17.5t-13.5 -24t-7 -40t-2.5 -47.5t-0.5 -62q8 12 31.5 24.5t56.5 12.5q46 0 75.5 -16t44 -50.5t19 -73.5t4.5 -101v-31q0 -43 -2 -72.5t-12 -69.5
t-28.5 -64.5t-54 -42t-85.5 -17.5t-85.5 17t-54 41t-29 63.5t-12.5 69t-2 73.5zM193 182q0 -84 53 -84q47 0 47 84v142q0 82 -47 82q-53 0 -53 -84v-140z" />
    </font>
</defs>
</svg>
